Digimon: La película

04 Apr 2016, 01:52 (Este mensaje fue modificado por última vez en: 19 Jan 2017 08:07 por Gibson)
Mensaje: #1

Digimon: La película

Completo Digimon: La película

Título original: Digimon: The Movie
Público: Shonen
Ambientación: Fantasía
Portugués: Brasil
1
Duración: 1h 28min 34s 600ms
2000
Video: 1920x1080 H.264
Contenedor: MKVSoftsubs
Audio:
Servidor:
Solo los usuarios registrados pueden descargar por torrent
Archivos Torrent:[mostrar archivos]
[Animelliure] Digimon - The Movie (2000) [Ver. América] [Lat-Por(Brasil)-Eng+Subs] [1080p] [v2] [73C7ABE9].mkv9,01 GB

Serie original: Digimon Adventure

Siete chicos son transportados al Digi-Mundo mientras se hallaban en un campamento de verano. En este mundo extraño y colorido moran los Digimon, unos pequeños monstruos digitales que les ayudarán en su aventura. Todos juntos lucharán contra los seres malignos que pretenden destruirlo. Diabormon es un malvado Digimón que está a punto de alcanzar su evolución máxima y dominar las comunicaciones por internet a nivel global.



Mediainfo:
Mostrar
General
Unique ID : 234748317250639051028738577347474185170 (0xB09AE1A0BA28156CB7B04FC98B295BD2)
Complete name : E:\Digimon - The Movie (2000)\MKV Final\[Animelliure] Digimon - The Movie (2000) [Ver. América] [Lat-Por(Brasil)-Eng+Subs] [1080p] [v2] [73C7ABE9].mkv
Format : Matroska
Format version : Version 4 / Version 2
File size : 9.01 GiB
Duration : 1h 28mn
Overall bit rate : 14.6 Mbps
Encoded date : UTC 2016-04-03 22:13:24
Writing application : mkvmerge v8.3.0 ('Over the Horizon') 64bit
Writing library : libebml v1.3.1 + libmatroska v1.4.2
Cover : Yes
Attachments : cover.png / cover_land.png

Video
ID : 1
Format : AVC
Format/Info : Advanced Video Codec
Format profile : High 10@L5
Format settings, CABAC : Yes
Format settings, ReFrames : 5 frames
Codec ID : V_MPEG4/ISO/AVC
Duration : 1h 28mn
Bit rate : 13.8 Mbps
Width : 1 920 pixels
Height : 1 080 pixels
Display aspect ratio : 16:9
Frame rate mode : Constant
Frame rate : 23.976 (24000/1001) fps
Color space : YUV
Chroma subsampling : 4:2:0
Bit depth : 10 bits
Scan type : Progressive
Bits/(Pixel*Frame) : 0.277
Stream size : 8.53 GiB (95Loco
Writing library : x264 core 146 r2538 121396c
Encoding settings : cabac=1 / ref=5 / deblock=1:0:0 / analyse=0x3:0x113 / me=umh / subme=8 / psy=1 / psy_rd=1.00:0.00 / mixed_ref=1 / me_range=16 / chroma_me=1 / trellis=1 / 8x8dct=1 / cqm=0 / deadzone=21,11 / fast_pskip=1 / chroma_qp_offset=-2 / threads=12 / lookahead_threads=2 / sliced_threads=0 / nr=0 / decimate=1 / interlaced=0 / bluray_compat=0 / constrained_intra=0 / bframes=3 / b_pyramid=2 / b_adapt=2 / b_bias=0 / direct=3 / weightb=1 / open_gop=0 / weightp=2 / keyint=250 / keyint_min=23 / scenecut=40 / intra_refresh=0 / rc_lookahead=50 / rc=crf / mbtree=1 / crf=16.5 / qcomp=0.60 / qpmin=0 / qpmax=81 / qpstep=4 / ip_ratio=1.40 / aq=1:1.00
Language : Japanese
Default : Yes
Forced : No

Audio #1
ID : 2
Format : AC-3
Format/Info : Audio Coding 3
Mode extension : CM (complete main)
Format settings, Endianness : Big
Codec ID : A_AC3
Duration : 1h 28mn
Bit rate mode : Constant
Bit rate : 192 Kbps
Channel(s) : 2 channels
Channel positions : Front: L R
Sampling rate : 48.0 KHz
Frame rate : 31.250 fps (1536 spf)
Compression mode : Lossy
Delay relative to video : 1ms
Stream size : 122 MiB (1Loco
Title : Stereo 2.0
Language : Spanish
Default : Yes
Forced : No

Audio #2
ID : 3
Format : AC-3
Format/Info : Audio Coding 3
Format profile : Dolby Digital
Mode extension : CM (complete main)
Format settings, Endianness : Big
Codec ID : A_AC3
Duration : 1h 28mn
Bit rate mode : Constant
Bit rate : 192 Kbps
Channel(s) : 2 channels
Channel positions : Front: L R
Sampling rate : 48.0 KHz
Frame rate : 31.250 fps (1536 spf)
Compression mode : Lossy
Delay relative to video : 1ms
Stream size : 122 MiB (1Loco
Title : Stereo 2.0
Language : Portuguese
Default : No
Forced : No

Audio #3
ID : 4
Format : AC-3
Format/Info : Audio Coding 3
Mode extension : CM (complete main)
Format settings, Endianness : Big
Codec ID : A_AC3
Duration : 1h 28mn
Bit rate mode : Constant
Bit rate : 384 Kbps
Channel(s) : 6 channels
Channel positions : Front: L C R, Side: L R, LFE
Sampling rate : 48.0 KHz
Frame rate : 31.250 fps (1536 spf)
Compression mode : Lossy
Delay relative to video : 1ms
Stream size : 243 MiB (3Loco
Title : Surround 5.1
Language : English
Default : No
Forced : No

Text #1
ID : 5
Format : VobSub
Muxing mode : zlib
Codec ID : S_VOBSUB
Codec ID/Info : Picture based subtitle format used on DVDs
Duration : 3s 630ms
Bit rate : 1 957 bps
Count of elements : 1
Stream size : 888 Bytes (0Loco
Language : Spanish
Default : No
Forced : Yes

Text #2
ID : 6
Format : VobSub
Muxing mode : zlib
Codec ID : S_VOBSUB
Codec ID/Info : Picture based subtitle format used on DVDs
Duration : 1h 25mn
Bit rate : 108 bps
Count of elements : 78
Stream size : 67.7 KiB (0Loco
Language : Portuguese
Default : No
Forced : Yes

Text #3
ID : 7
Format : VobSub
Muxing mode : zlib
Codec ID : S_VOBSUB
Codec ID/Info : Picture based subtitle format used on DVDs
Duration : 1h 25mn
Bit rate : 2 321 bps
Count of elements : 1268
Stream size : 1.42 MiB (0Loco
Language : Spanish
Default : No
Forced : No

Text #4
ID : 8
Format : VobSub
Muxing mode : zlib
Codec ID : S_VOBSUB
Codec ID/Info : Picture based subtitle format used on DVDs
Duration : 1h 25mn
Bit rate : 2 397 bps
Count of elements : 1268
Stream size : 1.47 MiB (0Loco
Language : Portuguese
Default : No
Forced : No

Text #5
ID : 9
Format : VobSub
Muxing mode : zlib
Codec ID : S_VOBSUB
Codec ID/Info : Picture based subtitle format used on DVDs
Duration : 1h 25mn
Bit rate : 2 285 bps
Count of elements : 1257
Stream size : 1.40 MiB (0Loco
Language : English
Default : No
Forced : No

Menu
00:00:00.083 : en:Chapter 01
00:04:02.191 : en:Chapter 02
00:05:31.331 : en:Chapter 03
00:07:10.763 : en:Chapter 04
00:19:30.669 : en:Chapter 05
00:24:45.650 : en:Chapter 06
00:29:05.443 : en:Chapter 07
00:37:07.558 : en:Chapter 08
00:39:16.020 : en:Chapter 09
00:47:40.357 : en:Chapter 10
00:51:09.232 : en:Chapter 11
00:52:29.479 : en:Chapter 12
00:54:11.348 : en:Chapter 13
00:55:42.439 : en:Chapter 14
00:57:56.406 : en:Chapter 15
01:04:42.645 : en:Chapter 16
01:07:24.140 : en:Chapter 17
01:12:38.954 : en:Chapter 18
01:22:12.694 : en:Chapter 19
01:25:36.064 : en:Chapter 20

Fabrebatalla18:
Recreación escena a escena de la versión internacional usando el vídeo del Blu-ray japones para así poderle montar los distintos doblajes.
La versión de Europa y la de América son idénticas en cuanto a calidad, la única diferencia que tienen son los FPS para ajustarlos a los doblajes de cada región.
04 Apr 2016, 07:03
Mensaje: #2

RE: Digimon: La película

No entendí esa nota al final, pero qué más da. Apenas tenga algo de espacio me la bajo. Gracias por compartirla.
Una cosilla, no tiene audio japo o faltó marcarle la bandera?
04 Apr 2016, 07:11 (Este mensaje fue modificado por última vez en: 04 Apr 2016 07:12 por Andrés)
Mensaje: #3

RE: Digimon: La película

No está doblada en japo.
04 Apr 2016, 13:45
Mensaje: #4

RE: Digimon: La película

(04 Apr 2016 07:03)shadowsky escribió:  No entendí esa nota al final, pero qué más da. Apenas tenga algo de espacio me la bajo. Gracias por compartirla.
Una cosilla, no tiene audio japo o faltó marcarle la bandera?

Pese a ser una coproducción Estados Unidos - Japón, carece de doblaje japonés.
04 Apr 2016, 14:20
Mensaje: #5

RE: Digimon: La película

(04 Apr 2016 07:03)shadowsky escribió:  No entendí esa nota al final, pero qué más da. Apenas tenga algo de espacio me la bajo. Gracias por compartirla.
Una cosilla, no tiene audio japo o faltó marcarle la bandera?
Para distribuir las 3 primeras OVAs japonesas internacionalmente la empresa Saban hizo un montaje editandolas en forma de una misma pelicula con el consiguiente recorte de escenas, cambios de guion y reordenacion de escenas.

Yo "simplemente" he recreado ese mismo montaje, escena a escena, partiendo de los Bluray japoneses para tener un video en HD y 16:9 y que asi los doblajes occidentales pudieran encajar.
04 Apr 2016, 15:40 (Este mensaje fue modificado por última vez en: 04 Apr 2016 15:45 por Caas)
Mensaje: #6

RE: Digimon: La película

¿Es Ángela Anaconda la que está en las dos primeras capturas (además de estar en 4:3)? ¡¿Por qué?!
04 Apr 2016, 15:42
Mensaje: #7

RE: Digimon: La película

(04 Apr 2016 15:40)Caas escribió:  ¿Es Ángela anaconda la que está en las dos primeras capturas (además de estar en 4:3)? ¡¿Por qué?!
Porque esas partes no existen en el Bluray japones, y si, es Angela Anaconda, es parte del montaje de Saban... quisieron hacer un minicapitulo donde iban a ver al cine la pelicula de Digimon... da algo de vergüenza ajena pero es parte de la peli xD
04 Apr 2016, 15:42
Mensaje: #8

RE: Digimon: La película

(04 Apr 2016 15:40)Caas escribió:  ¿Es Ángela anaconda la que está en las dos primeras capturas (además de estar en 4:3)? ¡¿Por qué?!

Las culpas a @fabrebatalla18 por no borrarlo (?)
04 Apr 2016, 15:49
Mensaje: #9

RE: Digimon: La película

No me esperaba menos de Saban, supongo. Pero bueh. Quizá me lleve esto una vez que mi ratio llegue al uno. Gracias.
05 Apr 2016, 18:08
Mensaje: #10

RE: Digimon: La película





Usuario(s) navegando en este tema: 1 invitado(s)