Digimon: La película

04 Apr 2016, 14:56 (Este mensaje fue modificado por última vez en: 17 May 2016 01:03 por Intervención)
Mensaje: #1

Digimon: La película

Completo Digimon: La película

Título original: Digimon: The Movie
Público: Shonen
Ambientación: Fantasía
Audios adicionales: Alemán, holandés
Subs adicionales: Alemán, danés, finlandés, noruego, sueco, holandés
1
Duración: 1h 24min 56s 920ms
2000
Video: 1280x720 H.264
Contenedor: MKVSoftsubs
Audio:
Servidor:
Solo los usuarios registrados pueden descargar por torrent
Archivos Torrent:[mostrar archivos]
[Animelliure] Digimon - The Movie (2000) [Ver. Europa] [Multi-Audio+Multi-Subs] [720p] [v2] [44992E5E].mkv4,35 GB

Serie original: Digimon Adventure

Siete chicos son transportados al Digi-Mundo mientras se hallaban en un campamento de verano. En este mundo extraño y colorido moran los Digimon, unos pequeños monstruos digitales que les ayudarán en su aventura. Todos juntos lucharán contra los seres malignos que pretenden destruirlo. Diabormon es un malvado Digimón que está a punto de alcanzar su evolución máxima y dominar las comunicaciones por internet a nivel global.



Mediainfo:
Mostrar
General
Unique ID : 199471429599358501178910907423667829074 (0x9610CCC84FC9802FA81CC7D613A4B952)
Complete name : E:\Digimon - The Movie (2000)\MKV Final\[Animelliure] Digimon - The Movie (2000) [Ver. Europa] [Multi-Audio+Multi-Subs] [720p] [v2] [44992E5E].mkv
Format : Matroska
Format version : Version 4 / Version 2
File size : 4.35 GiB
Duration : 1h 24mn
Overall bit rate : 7 324 Kbps
Encoded date : UTC 2016-04-03 22:24:04
Writing application : mkvmerge v8.3.0 ('Over the Horizon') 64bit
Writing library : libebml v1.3.1 + libmatroska v1.4.2
Cover : Yes
Attachments : cover.png / cover_land.png

Video
ID : 1
Format : AVC
Format/Info : Advanced Video Codec
Format profile : High@L3.1
Format settings, CABAC : Yes
Format settings, ReFrames : 5 frames
Codec ID : V_MPEG4/ISO/AVC
Duration : 1h 24mn
Bit rate : 4 791 Kbps
Width : 1 280 pixels
Height : 720 pixels
Display aspect ratio : 16:9
Frame rate mode : Constant
Frame rate : 25.000 fps
Original frame rate : 23.976 (24000/1001) fps
Color space : YUV
Chroma subsampling : 4:2:0
Bit depth : 8 bits
Scan type : Progressive
Bits/(Pixel*Frame) : 0.208
Stream size : 2.84 GiB (65Loco
Writing library : x264 core 146 r2538 121396c
Encoding settings : cabac=1 / ref=5 / deblock=1:0:0 / analyse=0x3:0x113 / me=umh / subme=8 / psy=1 / psy_rd=1.00:0.00 / mixed_ref=1 / me_range=16 / chroma_me=1 / trellis=1 / 8x8dct=1 / cqm=0 / deadzone=21,11 / fast_pskip=1 / chroma_qp_offset=-2 / threads=12 / lookahead_threads=2 / sliced_threads=0 / nr=0 / decimate=1 / interlaced=0 / bluray_compat=0 / constrained_intra=0 / bframes=3 / b_pyramid=2 / b_adapt=2 / b_bias=0 / direct=3 / weightb=1 / open_gop=0 / weightp=2 / keyint=250 / keyint_min=23 / scenecut=40 / intra_refresh=0 / rc_lookahead=50 / rc=crf / mbtree=1 / crf=17.0 / qcomp=0.60 / qpmin=0 / qpmax=69 / qpstep=4 / ip_ratio=1.40 / aq=1:1.00
Language : Japanese
Default : Yes
Forced : No

Audio #1
ID : 2
Format : AC-3
Format/Info : Audio Coding 3
Mode extension : CM (complete main)
Format settings, Endianness : Big
Codec ID : A_AC3
Duration : 1h 24mn
Bit rate mode : Constant
Bit rate : 384 Kbps
Channel(s) : 6 channels
Channel positions : Front: L C R, Side: L R, LFE
Sampling rate : 48.0 KHz
Frame rate : 31.250 fps (1536 spf)
Compression mode : Lossy
Delay relative to video : 17ms
Stream size : 233 MiB (5Loco
Title : Surround 5.1
Language : Spanish
Default : No
Forced : No

Audio #2
ID : 3
Format : AC-3
Format/Info : Audio Coding 3
Mode extension : CM (complete main)
Format settings, Endianness : Big
Codec ID : A_AC3
Duration : 1h 24mn
Bit rate mode : Constant
Bit rate : 384 Kbps
Channel(s) : 6 channels
Channel positions : Front: L C R, Side: L R, LFE
Sampling rate : 48.0 KHz
Frame rate : 31.250 fps (1536 spf)
Compression mode : Lossy
Delay relative to video : 17ms
Stream size : 233 MiB (5Loco
Title : Surround 5.1
Language : French
Default : No
Forced : No

Audio #3
ID : 4
Format : AC-3
Format/Info : Audio Coding 3
Mode extension : CM (complete main)
Format settings, Endianness : Big
Codec ID : A_AC3
Duration : 1h 24mn
Bit rate mode : Constant
Bit rate : 192 Kbps
Channel(s) : 1 channel
Channel positions : Front: C
Sampling rate : 48.0 KHz
Frame rate : 31.250 fps (1536 spf)
Compression mode : Lossy
Stream size : 117 MiB (3Loco
Title : Mono 1.0
Language : Portuguese
Default : No
Forced : No

Audio #4
ID : 5
Format : AC-3
Format/Info : Audio Coding 3
Mode extension : CM (complete main)
Format settings, Endianness : Big
Codec ID : A_AC3
Duration : 1h 24mn
Bit rate mode : Constant
Bit rate : 384 Kbps
Channel(s) : 6 channels
Channel positions : Front: L C R, Side: L R, LFE
Sampling rate : 48.0 KHz
Frame rate : 31.250 fps (1536 spf)
Compression mode : Lossy
Delay relative to video : 31ms
Stream size : 233 MiB (5Loco
Title : Surround 5.1
Language : Italian
Default : No
Forced : No

Audio #5
ID : 6
Format : AC-3
Format/Info : Audio Coding 3
Mode extension : CM (complete main)
Format settings, Endianness : Big
Codec ID : A_AC3
Duration : 1h 24mn
Bit rate mode : Constant
Bit rate : 384 Kbps
Channel(s) : 6 channels
Channel positions : Front: L C R, Side: L R, LFE
Sampling rate : 48.0 KHz
Frame rate : 31.250 fps (1536 spf)
Compression mode : Lossy
Delay relative to video : 17ms
Stream size : 233 MiB (5Loco
Title : Surround 5.1
Language : German
Default : No
Forced : No

Audio #6
ID : 7
Format : AC-3
Format/Info : Audio Coding 3
Mode extension : CM (complete main)
Format settings, Endianness : Big
Codec ID : A_AC3
Duration : 1h 24mn
Bit rate mode : Constant
Bit rate : 384 Kbps
Channel(s) : 6 channels
Channel positions : Front: L C R, Side: L R, LFE
Sampling rate : 48.0 KHz
Frame rate : 31.250 fps (1536 spf)
Compression mode : Lossy
Delay relative to video : 9ms
Stream size : 233 MiB (5Loco
Title : Surround 5.1
Language : Dutch
Default : No
Forced : No

Audio #7
ID : 8
Format : AC-3
Format/Info : Audio Coding 3
Mode extension : CM (complete main)
Format settings, Endianness : Big
Codec ID : A_AC3
Duration : 1h 24mn
Bit rate mode : Constant
Bit rate : 384 Kbps
Channel(s) : 6 channels
Channel positions : Front: L C R, Side: L R, LFE
Sampling rate : 48.0 KHz
Frame rate : 31.250 fps (1536 spf)
Compression mode : Lossy
Delay relative to video : 17ms
Stream size : 233 MiB (5Loco
Title : Surround 5.1
Language : English
Default : No
Forced : No

Text #1
ID : 9
Format : VobSub
Muxing mode : zlib
Codec ID : S_VOBSUB
Codec ID/Info : Picture based subtitle format used on DVDs
Duration : 1h 18mn
Bit rate : 5 bps
Count of elements : 22
Stream size : 3.33 KiB (0Loco
Language : Spanish
Default : No
Forced : Yes

Text #2
ID : 10
Format : VobSub
Muxing mode : zlib
Codec ID : S_VOBSUB
Codec ID/Info : Picture based subtitle format used on DVDs
Duration : 1h 21mn
Bit rate : 2 537 bps
Count of elements : 1248
Stream size : 1.49 MiB (0Loco
Language : Spanish
Default : No
Forced : No

Text #3
ID : 11
Format : VobSub
Muxing mode : zlib
Codec ID : S_VOBSUB
Codec ID/Info : Picture based subtitle format used on DVDs
Duration : 1h 18mn
Bit rate : 5 bps
Count of elements : 22
Stream size : 3.24 KiB (0Loco
Language : French
Default : No
Forced : Yes

Text #4
ID : 12
Format : VobSub
Muxing mode : zlib
Codec ID : S_VOBSUB
Codec ID/Info : Picture based subtitle format used on DVDs
Duration : 1h 21mn
Bit rate : 2 421 bps
Count of elements : 1248
Stream size : 1.42 MiB (0Loco
Language : French
Default : No
Forced : No

Text #5
ID : 13
Format : VobSub
Muxing mode : zlib
Codec ID : S_VOBSUB
Codec ID/Info : Picture based subtitle format used on DVDs
Duration : 1h 21mn
Bit rate : 2 407 bps
Count of elements : 1244
Stream size : 1.41 MiB (0Loco
Language : Portuguese
Default : No
Forced : No

Text #6
ID : 14
Format : VobSub
Muxing mode : zlib
Codec ID : S_VOBSUB
Codec ID/Info : Picture based subtitle format used on DVDs
Duration : 1h 21mn
Bit rate : 1 945 bps
Count of elements : 1043
Stream size : 1.14 MiB (0Loco
Language : Italian
Default : No
Forced : No

Text #7
ID : 15
Format : VobSub
Muxing mode : zlib
Codec ID : S_VOBSUB
Codec ID/Info : Picture based subtitle format used on DVDs
Duration : 1h 18mn
Bit rate : 5 bps
Count of elements : 22
Stream size : 3.34 KiB (0Loco
Language : German
Default : No
Forced : Yes

Text #8
ID : 16
Format : VobSub
Muxing mode : zlib
Codec ID : S_VOBSUB
Codec ID/Info : Picture based subtitle format used on DVDs
Duration : 1h 22mn
Bit rate : 2 967 bps
Count of elements : 1420
Stream size : 1.74 MiB (0Loco
Language : German
Default : No
Forced : No

Text #9
ID : 17
Format : VobSub
Muxing mode : zlib
Codec ID : S_VOBSUB
Codec ID/Info : Picture based subtitle format used on DVDs
Duration : 1h 21mn
Bit rate : 2 558 bps
Count of elements : 1237
Stream size : 1.50 MiB (0Loco
Language : English
Default : No
Forced : No

Text #10
ID : 18
Format : VobSub
Muxing mode : zlib
Codec ID : S_VOBSUB
Codec ID/Info : Picture based subtitle format used on DVDs
Duration : 1h 22mn
Bit rate : 2 938 bps
Count of elements : 1409
Stream size : 1.72 MiB (0Loco
Language : English
Default : No
Forced : No

Text #11
ID : 19
Format : VobSub
Muxing mode : zlib
Codec ID : S_VOBSUB
Codec ID/Info : Picture based subtitle format used on DVDs
Duration : 1h 21mn
Bit rate : 2 492 bps
Count of elements : 1247
Stream size : 1.46 MiB (0Loco
Language : Danish
Default : No
Forced : No

Text #12
ID : 20
Format : VobSub
Muxing mode : zlib
Codec ID : S_VOBSUB
Codec ID/Info : Picture based subtitle format used on DVDs
Duration : 1h 21mn
Bit rate : 2 284 bps
Count of elements : 1246
Stream size : 1.34 MiB (0Loco
Language : Finnish
Default : No
Forced : No

Text #13
ID : 21
Format : VobSub
Muxing mode : zlib
Codec ID : S_VOBSUB
Codec ID/Info : Picture based subtitle format used on DVDs
Duration : 1h 21mn
Bit rate : 2 317 bps
Count of elements : 1241
Stream size : 1.36 MiB (0Loco
Language : Norwegian
Default : No
Forced : No

Text #14
ID : 22
Format : VobSub
Muxing mode : zlib
Codec ID : S_VOBSUB
Codec ID/Info : Picture based subtitle format used on DVDs
Duration : 1h 21mn
Bit rate : 2 226 bps
Count of elements : 1244
Stream size : 1.30 MiB (0Loco
Language : Swedish
Default : No
Forced : No

Text #15
ID : 23
Format : VobSub
Muxing mode : zlib
Codec ID : S_VOBSUB
Codec ID/Info : Picture based subtitle format used on DVDs
Duration : 1h 21mn
Bit rate : 2 471 bps
Count of elements : 1247
Stream size : 1.45 MiB (0Loco
Language : Dutch
Default : No
Forced : No

Text #16
ID : 24
Format : VobSub
Muxing mode : zlib
Codec ID : S_VOBSUB
Codec ID/Info : Picture based subtitle format used on DVDs
Duration : 1h 22mn
Bit rate : 123 bps
Count of elements : 80
Stream size : 74.2 KiB (0Loco
Language : Dutch
Default : No
Forced : No

Menu
00:00:00.080 : en:Chapter 01
00:03:46.000 : en:Chapter 02
00:05:12.000 : en:Chapter 03
00:06:47.520 : en:Chapter 04
00:18:37.000 : en:Chapter 05
00:23:39.280 : en:Chapter 06
00:27:48.440 : en:Chapter 07
00:35:30.720 : en:Chapter 08
00:37:34.000 : en:Chapter 09
00:45:37.640 : en:Chapter 10
00:48:57.960 : en:Chapter 11
00:50:14.920 : en:Chapter 12
00:51:52.800 : en:Chapter 13
00:53:20.160 : en:Chapter 14
00:55:28.600 : en:Chapter 15
01:01:58.200 : en:Chapter 16
01:04:33.080 : en:Chapter 17
01:09:35.000 : en:Chapter 18
01:18:45.000 : en:Chapter 19
01:22:00.360 : en:Chapter 20

Fabrebatalla18:
Recreación escena a escena de la versión internacional usando el vídeo del Blu-ray japones para así poderle montar los distintos doblajes.
La versión de Europa y la de América son idénticas en cuanto a calidad, la única diferencia que tienen son los FPS para ajustarlos a los doblajes de cada región.
05 Apr 2016, 18:17 (Este mensaje fue modificado por última vez en: 05 Apr 2016 18:19 por Intervención)
Mensaje: #2

RE: Digimon: La película





Usuario(s) navegando en este tema: 1 invitado(s)