¡Hola, Invitado! (Iniciar sesiónRegístrate)
Hora: 25 Nov 2020, 12:11
¿Sabías que haciendo una donación única o suscribiéndote en Patreon puedes hacerte VIP para navegar sin publicidad y obtener acceso al tracker privado con DVDs/BDs?

Los niños lobo

22 May 2016, 23:56 (Este mensaje fue modificado por última vez en: 20 Sep 2019 16:26 por Intervención)
Mensaje: #1

Los niños lobo

Completo Los niños lobo

Título original: Ookami Kodomo no Ame to Yuki
Fansub: TéConPastas
Público: Kodomo
Ambientación: Fantasía
1
Duración: 117min
2012
Video: 1920x1080 H.264
Contenedor: MKVSoftsubs
Audio:
Servidor:
Solo los usuarios registrados pueden descargar por torrent
Archivos Torrent:[mostrar archivos]
[Pastas] Los niños lobo (Ookami Kodomo no Ame to Yuki) (2012) [BDrip 1080p x264 4-audio FLAC-AAC Subs] [B3CC2491].mkv9,31 GB

Cuando era poco más que una adolescente, Hana se enamoró de un Hombre Lobo. Puede parecer extraño, pero durante años fueron inmensamente felices, y tuvieron dos hijos: Yuki y Ame, que nacieron también con la capacidad de convertirse en lobos. Tras la repentina muerte de su compañero, Hana decide mudarse al campo para así criar a sus hijos en un entorno tranquilo, donde sus extraordinarias facultades no sean descubiertas. Sin embargo, al crecer, Yuki y Ame deberán decidir si quieren vivir como humanos o como lobos. Un hermoso cuento salido de la imaginación de Mamoru Hosoda, que ya nos maravilló con "La chica que saltaba a través del tiempo" y "Summer Wars".


Mediainfo:
Mostrar
General
Unique ID : 233636173372993421247042433589129507127 (0xAFC4B0B382A2127ABE6BC6D15E37F137)
Complete name : T:\[Pastas] Los niños lobo (Ookami Kodomo no Ame to Yuki) (2012) [BDrip 1080p x264 4-audio FLAC-AAC Subs] [B3CC2491].mkv
Format : Matroska
Format version : Version 4 / Version 2
File size : 9.31 GiB
Duration : 1h 57mn
Overall bit rate mode : Variable
Overall bit rate : 11.4 Mbps
Movie name : [Pastas] Los niños lobo (Ookami Kodomo no Ame to Yuki) (2012) [BDrip 1080p x264 4-audio FLAC Subs]
Encoded date : UTC 2016-05-22 22:27:25
Writing application : mkvmerge v8.9.0 ('Father Daughter') 64bit
Writing library : libebml v1.3.3 + libmatroska v1.4.4
Attachments : ANNA.ttf / Arial Rounded MT Bold.ttf / Arial Rounded MT.ttf / AveriaSerif-Bold.ttf / ComiXXX.ttf / CREABBRG.ttf / Delicious-Bold.otf / edosz.ttf / fawn.ttf / FRADMCN.TTF / FRAMDCN.TTF / ObelixPro-cyr.ttf / Passing Notes.ttf / Prototype.ttf

Video
ID : 1
Format : AVC
Format/Info : Advanced Video Codec
Format profile : High 10@L4.1
Format settings, CABAC : Yes
Format settings, ReFrames : 4 frames
Codec ID : V_MPEG4/ISO/AVC
Duration : 1h 57mn
Bit rate : 6 304 Kbps
Width : 1 920 pixels
Height : 1 080 pixels
Display aspect ratio : 16:9
Frame rate mode : Constant
Frame rate : 23.976 (24000/1001) fps
Color space : YUV
Chroma subsampling : 4:2:0
Bit depth : 10 bits
Scan type : Progressive
Bits/(Pixel*Frame) : 0.127
Stream size : 5.15 GiB (55%)
Title : [REVO] Ookami Kodomo no Ame to Yuki
Language : Japanese
Default : Yes
Forced : No
Color range : Limited
Color primaries : BT.709
Transfer characteristics : BT.709
Matrix coefficients : BT.709

Audio #1
ID : 2
Format : FLAC
Format/Info : Free Lossless Audio Codec
Codec ID : A_FLAC
Duration : 1h 57mn
Bit rate mode : Variable
Bit rate : 1 159 Kbps
Channel(s) : 6 channels
Channel positions : Front: L C R, Side: L R, LFE
Sampling rate : 48.0 KHz
Frame rate : 11.719 fps (4096 spf)
Bit depth : 16 bits
Stream size : 971 MiB (10%)
Title : Castellano [Selecta Visión]
Writing library : libFLAC 1.2.1 (UTC 2007-09-17)
Language : Spanish
Default : Yes
Forced : No

Audio #2
ID : 3
Format : FLAC
Format/Info : Free Lossless Audio Codec
Codec ID : A_FLAC
Duration : 1h 57mn
Bit rate mode : Variable
Bit rate : 3 225 Kbps
Channel(s) : 6 channels
Channel positions : Front: L C R, Side: L R, LFE
Sampling rate : 48.0 KHz
Frame rate : 11.719 fps (4096 spf)
Bit depth : 24 bits
Stream size : 2.64 GiB (28%)
Title : Japonés [Selecta Visión]
Writing library : libFLAC 1.2.1 (UTC 2007-09-17)
Language : Japanese
Default : No
Forced : No

Audio #3
ID : 4
Format : AAC
Format/Info : Advanced Audio Codec
Format profile : LC
Codec ID : A_AAC
Duration : 1h 57mn
Bit rate : 451 Kbps
Channel(s) : 6 channels
Channel positions : Front: L C R, Side: L R, LFE
Sampling rate : 48.0 KHz
Frame rate : 46.875 fps (1024 spf)
Compression mode : Lossy
Stream size : 378 MiB (4%)
Title : Inglés
Language : English
Default : No
Forced : No

Audio #4
ID : 5
Format : AAC
Format/Info : Advanced Audio Codec
Format profile : LC
Codec ID : A_AAC
Duration : 1h 57mn
Bit rate : 241 Kbps
Channel(s) : 2 channels
Channel positions : Front: L R
Sampling rate : 48.0 KHz
Frame rate : 46.875 fps (1024 spf)
Compression mode : Lossy
Delay relative to video : 3ms
Stream size : 202 MiB (2%)
Title : Latino
Language : Spanish
Default : No
Forced : No

Text #1
ID : 6
Format : ASS
Codec ID : S_TEXT/ASS
Codec ID/Info : Advanced Sub Station Alpha
Duration : 1h 56mn
Bit rate : 756 bps
Count of elements : 4305
Compression mode : Lossless
Stream size : 643 KiB (0%)
Title : Español Completos [Anacrónico Fansub]
Language : Spanish
Default : No
Forced : No

Text #2
ID : 7
Format : UTF-8
Codec ID : S_TEXT/UTF8
Codec ID/Info : UTF-8 Plain Text
Duration : 1h 52mn
Bit rate : 2 bps
Count of elements : 61
Stream size : 2.33 KiB (0%)
Title : Castellano Forzados [Selecta Visión]
Language : Spanish
Default : Yes
Forced : Yes

Text #3
ID : 8
Format : UTF-8
Codec ID : S_TEXT/UTF8
Codec ID/Info : UTF-8 Plain Text
Duration : 1h 56mn
Bit rate : 49 bps
Count of elements : 1175
Stream size : 41.9 KiB (0%)
Title : Castellano Completos [Selecta Visión]
Language : Spanish
Default : No
Forced : No

Menu
00:00:00.000 : :Chapter 1
00:00:34.325 : :Chapter 2
00:01:56.991 : :Chapter 3
00:04:30.895 : :Chapter 4
00:07:44.213 : :Chapter 5
00:10:32.340 : :Chapter 6
00:14:00.089 : :Chapter 7
00:17:25.544 : :Chapter 8
00:22:21.506 : :Chapter 9
00:25:01.666 : :Chapter 10
00:29:44.282 : :Chapter 11
00:34:35.740 : :Chapter 12
00:38:44.238 : :Chapter 13
00:42:51.110 : :Chapter 14
00:48:30.157 : :Chapter 15
00:50:19.850 : :Chapter 16
00:53:34.711 : :Chapter 17
00:58:41.976 : :Chapter 18
01:04:37.206 : :Chapter 19
01:07:34.717 : :Chapter 20
01:10:47.284 : :Chapter 21
01:14:06.733 : :Chapter 22
01:17:58.048 : :Chapter 23
01:22:01.583 : :Chapter 24
01:25:09.604 : :Chapter 25
01:29:26.486 : :Chapter 26
01:32:59.490 : :Chapter 27
01:37:44.233 : :Chapter 28
01:44:34.309 : :Chapter 29
01:49:55.839 : :Chapter 30
01:51:48.118 : :Chapter 31
01:57:02.515 : :Chapter 32


DD Google Drive por JanoBitz:
Mostrar
05 Jun 2016, 04:52
Mensaje: #2

RE: Los niños lobo

Que penita lso BD latinos con el audio 2.0 xD
Gracias
05 Jun 2016, 10:24
Mensaje: #3

RE: Los niños lobo

(05 Jun 2016 04:52)Reina Perry escribió:  Que penita lso BD latinos con el audio 2.0 xD
Gracias

¡Pero lo incluye! XD Ahora no quiero quejas... xD
08 Sep 2018, 10:00
Mensaje: #4

RE: Los niños lobo

¿Nadie que comparta aún este archivo?
08 Sep 2018, 12:18
Mensaje: #5

RE: Los niños lobo

hermosa pelicula
sobre todo la sonrisa de yukki
15 Jan 2019, 20:00 (Este mensaje fue modificado por última vez en: 15 Jan 2019 20:05 por Disperso)
Mensaje: #6

RE: Los niños lobo

Gracias por el aporte, Intervención, pero estoy intentando descargarlo y no aparecen semillas...

(05 Jun 2016 10:24)Intervención escribió:  ¡Pero lo incluye! XD Ahora no quiero quejas... xD
Te cito, como solicitas, para contactar contigo... "Los niños lobo" carece de semillas; llevo más de 24 horas al 0%...
15 Jan 2019, 20:10
Mensaje: #7

RE: Los niños lobo

Tiene semillas.
15 Jan 2019, 20:23 (Este mensaje fue modificado por última vez en: 15 Jan 2019 20:23 por Disperso)
Mensaje: #8

RE: Los niños lobo

(15 Jan 2019 20:10)Intervención escribió:  Tiene semillas.
Que Tutatis te oiga! Ya te digo que después de muchas horas no ha aparecido ni el tato... pero bueno, tengamos paciencia Guiño
16 Jan 2019, 11:48
Mensaje: #9

RE: Los niños lobo

Pues me he levantado esta mañana y estaba descargada! Risa
Muchas gracias de nuevo, Intervención!!!
20 Sep 2019, 16:17
Mensaje: #10

RE: Los niños lobo

Mirror.




Usuario(s) navegando en este tema: 1 invitado(s)