¡Hola, Invitado! (Iniciar sesiónRegístrate)
Hora: 25 Nov 2020, 12:10
¿Sabías que haciendo una donación única o suscribiéndote en Patreon puedes hacerte VIP para navegar sin publicidad y obtener acceso al tracker privado con DVDs/BDs?

Ghost in the Shell: Arise

19 Jun 2016, 02:26 (Este mensaje fue modificado por última vez en: 09 Aug 2019 04:54 por Kaizer)
Mensaje: #1

Ghost in the Shell: Arise

Completo Ghost in the Shell: Arise

Fansub: TéConPastas
Público: Seinen
Ambientación: Ciencia Ficción
Género: Acción
Subtítulos: Hagure Subs, Backbeard
4
Duración: 60 min
2013
Video: 1280x720 H.264
Contenedor: MKVSoftsubs
Audio:
Servidor:
Solo los usuarios registrados pueden descargar por torrent
Archivos Torrent:[mostrar archivos]
[TéConPastas] Ghost in the Shell Arise - 1 (2013) [BD 720p AVC AC3 5.1 Dual] [DE9E3A44].mkv0,98 GB
[TéConPastas] Ghost in the Shell Arise - 2 (2013) [BD 720p AVC AC3 5.1 Dual] [8CB3D355].mkv1,37 GB
[TéConPastas] Ghost in the Shell Arise - 3 (2013) [BD 720p AVC AC3 5.1 Dual] [B323AE5A].mkv1,05 GB
[TéConPastas] Ghost in the Shell Arise - 4 (2013) [BD 720p AVC AC3 5.1 Dual] [9993A3BB].mkv1,42 GB

2027, un año después del final de la 4a Guerra Mundial, el oficial de seguridad pública Daisuke Aramaki recluta a la joven cyborg y brillante hacker Motoko Kusanagi para que investigue un devastador atentado que ha acabado con la vida de un traficante de armas sospechoso de estar vinculado a la misteriosa organización 501, en la investigación también participan el cyborg Batou, que sospecha que Kusanagi es una criminal, el detective Togusa, que investiga una serie de asesinatos que podrían estar relacionados con el caso, y la coronel Kurtz de la organización 501, responsable de al cibernetización de Kusanagi. Entorno a ellos comenzará a formarse un equipo de agentes especializados en crímenes cibernéticos e informáticos como el mundo no ha conocido antes.


Mediainfo:
Mostrar
General
Unique ID : 210461077679677537052178779005704511426 (0x9E55544408EE01688D7AD4AA53409FC2)
Complete name : T:\Ghost in the Shell\TéConPastas\Arise\[TéConPastas] Ghost in the Shell Arise - 1 (2013) [BD 720p AVC AC3 5.1 Dual] [DE9E3A44].mkv
Format : Matroska
Format version : Version 4 / Version 2
File size : 1 009 MiB
Duration : 58mn 22s
Overall bit rate : 2 415 Kbps
Movie name : Té Con Pastas, dónde la calidad importa. http:/telegram.me/TeConPastas
Encoded date : UTC 2016-06-18 20:39:08
Writing application : mkvmerge v8.9.0 ('Father Daughter') 64bit
Writing library : libebml v1.3.3 + libmatroska v1.4.4
Attachments : cambria.ttf / cambriab_0.ttf / GalSILR.ttf / goonspectre_tbs bold.ttf / PermanentMarker.ttf / sf-comic-script-bold.ttf / Tiresias Infofont.TTF / Tiresias Infofont_1.TTF / dream orphanage rg_1.ttf / dream orphanage rg_2.ttf / dream orphanage rg_3.ttf / dream orphanage rg_4.ttf / Dyno Italic.ttf / Dyno Regular.ttf / ebrima.ttf / ebrima_0.ttf / PermanentMarker.ttf / sharpie-stylie.ttf / TinBird.ttf / BlowholeBB.otf / CAMBRIA.TTC / cambria.ttf / CommieSans-Medium.ttf / CWDRKAGE.TTF / dream orphanage rg.otf / dream orphanage rg.ttf / dream orphanage rg_0.otf / dream orphanage rg_0.ttf / BlowholeBB.otf / cambria_1.ttc / CommieSans-Medium.ttf / CWDRKAGE.TTF / dream orphanage rg.otf / Dyno Italic.ttf / Dyno Regular.ttf / ebrima_1.ttf / sharpie-stylie.ttf / TinBird.ttf

Video
ID : 1
Format : AVC
Format/Info : Advanced Video Codec
Format profile : High@L4
Format settings, CABAC : Yes
Format settings, ReFrames : 6 frames
Codec ID : V_MPEG4/ISO/AVC
Duration : 58mn 22s
Bit rate : 1 307 Kbps
Width : 1 280 pixels
Height : 720 pixels
Display aspect ratio : 16:9
Frame rate mode : Constant
Frame rate : 23.976 (24000/1001) fps
Color space : YUV
Chroma subsampling : 4:2:0
Bit depth : 8 bits
Scan type : Progressive
Bits/(Pixel*Frame) : 0.059
Stream size : 546 MiB (54%)
Title : Encoded by SEED
Language : Japanese
Default : Yes
Forced : Yes

Audio #1
ID : 2
Format : AC-3
Format/Info : Audio Coding 3
Mode extension : CM (complete main)
Format settings, Endianness : Big
Codec ID : A_AC3
Duration : 58mn 22s
Bit rate mode : Constant
Bit rate : 640 Kbps
Channel(s) : 6 channels
Channel positions : Front: L C R, Side: L R, LFE
Sampling rate : 48.0 KHz
Frame rate : 31.250 fps (1536 spf)
Compression mode : Lossy
Stream size : 267 MiB (26%)
Title : Japonés 5.1 [BluRay JPN]
Language : Japanese
Default : No
Forced : No

Audio #2
ID : 3
Format : AC-3
Format/Info : Audio Coding 3
Mode extension : CM (complete main)
Format settings, Endianness : Big
Codec ID : A_AC3
Duration : 57mn 59s
Bit rate mode : Constant
Bit rate : 448 Kbps
Channel(s) : 6 channels
Channel positions : Front: L C R, Side: L R, LFE
Sampling rate : 48.0 KHz
Frame rate : 31.250 fps (1536 spf)
Compression mode : Lossy
Delay relative to video : 2s 0ms
Stream size : 186 MiB (18%)
Title : Castellano 5.1 [DVD Castellano]
Language : Spanish
Default : Yes
Forced : No

Text #1
ID : 4
Format : ASS
Codec ID : S_TEXT/ASS
Codec ID/Info : Advanced Sub Station Alpha
Duration : 56mn 50s
Bit rate : 524 bps
Count of elements : 1808
Compression mode : Lossless
Stream size : 218 KiB (0%)
Title : Español Completo [Hagure Subs]
Language : Spanish
Default : No
Forced : No

Text #2
ID : 5
Format : ASS
Codec ID : S_TEXT/ASS
Codec ID/Info : Advanced Sub Station Alpha
Duration : 56mn 50s
Bit rate : 513 bps
Count of elements : 1785
Compression mode : Lossless
Stream size : 214 KiB (0%)
Title : Español Completo [BackBeard]
Language : Spanish
Default : No
Forced : No

Text #3
ID : 6
Format : ASS
Codec ID : S_TEXT/ASS
Codec ID/Info : Advanced Sub Station Alpha
Duration : 5s 0ms
Bit rate : 32 bps
Count of elements : 1
Compression mode : Lossless
Stream size : 20.0 Bytes (0%)
Title : -Pista de subs vacía-
Default : Yes
Forced : Yes

Menu
00:00:00.000 : es:Intro
00:01:41.852 : es:Opening
00:02:43.288 : es:Parte A
00:15:44.986 : es:Parte B
00:24:54.952 : es:Parte C
00:39:33.246 : es:Parte D
00:53:05.391 : es:Creditos
00:57:00.125 : es:Post-créditos
00:57:44.211 : es:Previa
19 Jun 2016, 08:40
Mensaje: #2

RE: Ghost in the Shell: Arise

¿Para qué es la pista de subtítulos vacía?
19 Jun 2016, 09:05
Mensaje: #3

RE: Ghost in the Shell: Arise

Hay una quinta OVA que de momento ninguno de los dos fansubs mencionados ha sacado - "Pyrophoric Cult". De hecho hasta ni Selecta lo ha sacado con la excusa más cutre y boba del mundo. En fin. Gracias por la versión Intervención.
19 Jun 2016, 09:23 (Este mensaje fue modificado por última vez en: 19 Jun 2016 10:15 por poxitron)
Mensaje: #4

RE: Ghost in the Shell: Arise

Por muy continuación que sea, Pyrophoric Cult pertenece a la versión de televisión Alternative Architecture, no a Arise, he imagino que Selecta tendría que pagar la licencia de toda la serie solo para poder tener acceso a los dos últimos episodios, que es el único material nuevo. Si el motivo es ese, me parece normal que no la licencie.
19 Jun 2016, 12:22
Mensaje: #5

RE: Ghost in the Shell: Arise

(19 Jun 2016 08:40)poxitron escribió:  ¿Para qué es la pista de subtítulos vacía?

Dado que los carteles que vi eran irrelevantes, es para evitar tener que cambiar / desactivar los Subs cuando lo reproduces (al tener castellano como audio principal). Se podría decir que son los Subs forzados.
19 Jun 2016, 18:51
Mensaje: #6

RE: Ghost in the Shell: Arise

Habrán links por mega??
19 Jun 2016, 21:03
Mensaje: #7

RE: Ghost in the Shell: Arise

Quizá. Me da bastante pereza todo el tema DD a mi.
19 Jun 2016, 21:22
Mensaje: #8

RE: Ghost in the Shell: Arise

Es que como no he visto estas OVAs esperaba una versión como esta para verla y que no me sigan linchando por haber visto la nueva película sin verme era jajajajaja (también espero DD por mega para la película también como buen lechero que soy Sacar lengua )
19 Jun 2016, 21:23
Mensaje: #9

RE: Ghost in the Shell: Arise

Ya ya. DD habrá, pero meh... seguramente sea 1fichier lo siento.
19 Jun 2016, 21:36
Mensaje: #10

RE: Ghost in the Shell: Arise

Muchas gracias por esta version, voy a volver a verme toda la saga de nuevo! Esperare a la DD minetras empieze de cero Risa



Usuario(s) navegando en este tema: 1 invitado(s)