¡Hola, Invitado! (Iniciar sesiónRegístrate)
Hora: 25 Sep 2018, 07:58

 
Calificación:
  • 0 votos - 0 Media
  • 1
  • 2
  • 3
  • 4
  • 5

Batman: Gotham Knight

07 Sep 2017, 00:54 (Este mensaje fue modificado por última vez en: 24 Jul 2018 22:38 por Tret)
Mensaje: #1

Batman: Gotham Knight

Una colección de seis cortometrajes sobre el icónico detective de DC Comics, dirigido por el escritor y artista estadounidense Bruce Timm y animado por Studio 4°C, Production I.G, Madhouse y Bee Train.

Nota: Los 6 OVA's en un único archivo.



MediaInfo:
Mostrar
[Horadric] Batman - Gotham Knight (200Guay [BD][1080p AVC][ENG AC3][SOFT SPA] [0E10AA47].mkv
Format : Matroska
Format version : Version 4 / Version 2
File size : 4.37 GiB
Duration : 1 h 15 min
Overall bit rate : 8 240 kb/s
Encoded date : UTC 2017-09-06 17:18:13
Writing application : mkvmerge v15.0.0 ('Duel with the Devil') 64-bit
Writing library : libebml v1.3.5 + libmatroska v1.4.5
Attachments : Aero Matics Bold.ttf / Century Gothic Bold.ttf / Franklin Gothic Heavy.ttf

Video
ID : 1
Format : AVC
Format/Info : Advanced Video Codec
Format profile : High@L4.1
Format settings : CABAC / 5 Ref Frames
Format settings, CABAC : Yes
Format settings, ReFrames : 5 frames
Codec ID : V_MPEG4/ISO/AVC
Duration : 1 h 15 min
Bit rate : 7 596 kb/s
Width : 1 920 pixels
Height : 1 080 pixels
Display aspect ratio : 16:9
Frame rate mode : Constant
Frame rate : 23.976 FPS
Color space : YUV
Chroma subsampling : 4:2:0
Bit depth : 8 bits
Scan type : Progressive
Bits/(Pixel*Frame) : 0.153
Stream size : 4.03 GiB (92Loco
Writing library : x264 core 59 r859M ce13bb6
Encoding settings : cabac=1 / ref=5 / deblock=1:0:0 / analyse=0x3:0x113 / me=umh / subme=7 / me-prepass=0 / brdo=1 / mixed_ref=1 / me_range=16 / chroma_me=1 / trellis=1 / 8x8dct=1 / cqm=0 / deadzone=21,11 / chroma_qp_offset=0 / threads=6 / nr=0 / decimate=1 / mbaff=0 / fgo=0 / bframes=3 / b_pyramid=1 / b_adapt=1 / b_bias=0 / direct=1 / wpredb=1 / bime=1 / keyint=250 / keyint_min=25 / scenecut=40(pre) / rc=2pass / bitrate=7596 / ratetol=1.0 / rceq='blurCplx^(1-qComp)' / qcomp=1.00 / qpmin=10 / qpmax=51 / qpstep=4 / cplxblur=20.0 / qblur=0.5 / ip_ratio=1.40 / pb_ratio=1.30 / aq=2:1.00
Default : Yes
Forced : No

Audio
ID : 2
Format : AC-3
Format/Info : Audio Coding 3
Codec ID : A_AC3
Duration : 1 h 15 min
Bit rate mode : Constant
Bit rate : 640 kb/s
Channel(s) : 6 channels
Channel positions : Front: L C R, Side: L R, LFE
Sampling rate : 48.0 kHz
Frame rate : 31.250 FPS (1536 SPF)
Bit depth : 16 bits
Compression mode : Lossy
Stream size : 348 MiB (8Loco
Language : English
Service kind : Complete Main
Default : Yes
Forced : No

Text
ID : 3
Format : ASS
Codec ID : S_TEXT/ASS
Codec ID/Info : Advanced Sub Station Alpha
Duration : 1 h 9 min
Bit rate : 87 b/s
Count of elements : 633
Compression mode : Lossless
Stream size : 44.8 KiB (0Loco
Language : Spanish
Default : Yes
Forced : No
07 Sep 2017, 13:23
Mensaje: #2

RE: Batman: Gotham Knight

Yo tengo esta con audio latino, castellano y subtitulada.
A ver si entran ganas para compartirla.
24 Jul 2018, 22:39
Mensaje: #3

RE: Batman: Gotham Knight

Se agradece que te hayas tomado la molestia de subir esto al foro, pero por desgracia incumple una de las normas del foro, que es la siguiente: "No se permite subir animes que han sido comprimidos usando --bitrate en vez de --crf si el fansub ha trabajado dicho anime después del año 2013".

Muevo el tema a la papelera.


Usuario(s) navegando en este tema: 1 invitado(s)