¡Hola, Invitado! (Iniciar sesiónRegístrate)
Hora: 14 Nov 2018, 12:53

Ano Hi Mita Hana no Namae wo Bokutachi wa Mada Shiranai. Movie

19 Jan 2018, 23:57 (Este mensaje fue modificado por última vez en: 25 May 2018 15:40 por Domuggu)
Mensaje: #1

Ano Hi Mita Hana no Namae wo Bokutachi wa Mada Shiranai. Movie

Completo Ano Hi Mita Hana no Namae wo Bokutachi wa Mada Shiranai. Movie

Fansub: Backbeard
Público: Seinen
Ambientación: Presente
Género: Drama
Productora: Aniplex
Estudio: A-1 Pictures
1
Duración: 1:39:09
2013
Video: 1280x720 H.264
Contenedor: MKVSoftsubs
Audio:
Servidor:
Solo los usuarios registrados pueden descargar por torrent
Archivos Torrent:[mostrar archivos]
[BB] AnoHana - Gekijouban [BDRip 720p] [11CA9DDE].mkv1,72 GB

Película resumen de la serie de TV con escenas nuevas a modo de epílogo.



MediaInfo:
Mostrar
Format : Matroska
Format version : Version 4 / Version 2
File size : 1.72 GiB
Duration : 1 h 39 min
Overall bit rate mode : Variable
Overall bit rate : 2 480 kb/s
Movie name : [BB] AnoHana - Gekijouban [BDRip 720p]
Encoded date : UTC 2017-04-22 09:38:34
Writing application : mkvmerge v9.4.0 ('Knurl') 64bit
Writing library : libebml v1.3.4 + libmatroska v1.4.5
Attachments : bluehigh.ttf

Video
ID : 1
Format : AVC
Format/Info : Advanced Video Codec
Format profile : High 10@L5
Format settings : CABAC / 16 Ref Frames
Format settings, CABAC : Yes
Format settings, ReFrames : 16 frames
Codec ID : V_MPEG4/ISO/AVC
Duration : 1 h 39 min
Bit rate : 1 205 kb/s
Width : 1 280 pixels
Height : 720 pixels
Display aspect ratio : 16:9
Frame rate mode : Constant
Frame rate : 23.976 FPS
Color space : YUV
Chroma subsampling : 4:2:0
Bit depth : 10 bits
Scan type : Progressive
Bits/(Pixel*Frame) : 0.055
Stream size : 855 MiB (49Loco
Writing library : x264 core 133 r2334 a3ac64b
Encoding settings : cabac=1 / ref=16 / deblock=1:1:-2 / analyse=0x3:0x113 / me=umh / subme=10 / psy=1 / psy_rd=1.10:0.10 / mixed_ref=1 / me_range=32 / chroma_me=1 / trellis=2 / 8x8dct=1 / cqm=0 / deadzone=21,11 / fast_pskip=0 / chroma_qp_offset=-3 / threads=8 / lookahead_threads=2 / sliced_threads=0 / nr=0 / decimate=0 / interlaced=0 / bluray_compat=0 / constrained_intra=0 / bframes=16 / b_pyramid=2 / b_adapt=2 / b_bias=0 / direct=3 / weightb=1 / open_gop=0 / weightp=2 / keyint=250 / keyint_min=23 / scenecut=40 / intra_refresh=0 / rc_lookahead=50 / rc=crf / mbtree=1 / crf=16.0 / qcomp=0.60 / qpmin=0 / qpmax=81 / qpstep=4 / ip_ratio=1.40 / aq=1:0.70
Default : Yes
Forced : No

Audio
ID : 2
Format : FLAC
Format/Info : Free Lossless Audio Codec
Codec ID : A_FLAC
Duration : 1 h 39 min
Bit rate mode : Variable
Bit rate : 1 273 kb/s
Channel(s) : 6 channels
Channel positions : Front: L C R, Side: L R, LFE
Sampling rate : 48.0 kHz
Frame rate : 10.417 FPS (4608 SPF)
Bit depth : 16 bits
Stream size : 903 MiB (51Loco
Writing library : Lavf54.63.104
Language : Japanese
Default : Yes
Forced : No

Text
ID : 3
Format : ASS
Codec ID : S_TEXT/ASS
Codec ID/Info : Advanced Sub Station Alpha
Duration : 1 h 38 min
Bit rate : 221 b/s
Count of elements : 2119
Compression mode : Lossless
Stream size : 160 KiB (0Loco
Language : Spanish
Default : Yes
Forced : No

Menu
00:00:00.000 : es:Intro
00:07:45.589 : es:Pelicula
01:33:49.702 : es:Ending
01:38:20.806 : es:Epilogo



Usuario(s) navegando en este tema: 1 invitado(s)