¡Hola, Invitado! (Iniciar sesiónRegístrate)
Hora: 20 Oct 2018, 18:45

Chobits

06 Mar 2018, 08:49 (Este mensaje fue modificado por última vez en: 11 Mar 2018 09:37 por Tret)
Mensaje: #1

Chobits

Completo Chobits

Fansub: EvoShare
Público: Seinen
Ambientación: Ciencia Ficción
Género: Romance
Especiales: 4
24
Duración: 24 min
2002
Video: 1280x720 H.264
Contenedor: MKVSoftsubs
Audio:
Servidor:
Solo los usuarios registrados pueden descargar por torrent
Archivos Torrent:[mostrar archivos]
Chobits 01 [DVD+DVD][x264-AC3][Evoshare][By friki100].mkv400,74 MB
Chobits 02 [DVD+DVD][x264-AC3][Evoshare][By friki100].mkv400,40 MB
Chobits 03 [DVD+DVD][x264-AC3][Evoshare][By friki100].mkv400,54 MB
Chobits 04 [DVD+DVD][x264-AC3][Evoshare][By friki100].mkv400,46 MB
Chobits 05 [DVD+DVD][x264-AC3][Evoshare][By friki100].mkv400,49 MB
Chobits 06 [DVD+DVD][x264-AC3][Evoshare][By friki100].mkv400,16 MB
Chobits 07 [DVD+DVD][x264-AC3][Evoshare][By friki100].mkv400,38 MB
Chobits 08 [DVD+DVD][x264-AC3][Evoshare][By friki100].mkv400,63 MB
Chobits 08.5 [DVD+DVD][x264-AC3][Evoshare][By friki100].mkv370,55 MB
Chobits 09 [DVD+DVD][x264-AC3][Evoshare][By friki100].mkv400,32 MB
Chobits 10 [DVD+DVD][x264-AC3][Evoshare][By friki100].mkv400,46 MB
Chobits 11 [DVD+DVD][x264-AC3][Evoshare][By friki100].mkv400,50 MB
Chobits 12 [DVD+DVD][x264-AC3][Evoshare][By friki100].mkv400,51 MB
Chobits 13 [DVD+DVD][x264-AC3][Evoshare][By friki100].mkv400,54 MB
Chobits 14 [DVD+DVD][x264-AC3][Evoshare][By friki100].mkv400,37 MB
Chobits 15 [DVD+DVD][x264-AC3][Evoshare][By friki100].mkv400,43 MB
Chobits 16 [DVD+DVD][x264-AC3][Evoshare][By friki100].mkv400,39 MB
Chobits 16.5 [DVD+DVD][x264-AC3][Evoshare][By friki100].mkv370,55 MB
Chobits 17 [DVD+DVD][x264-AC3][Evoshare][By friki100].mkv400,39 MB
Chobits 18 [DVD+DVD][x264-AC3][Evoshare][By friki100].mkv400,37 MB
Chobits 19 [DVD+DVD][x264-AC3][Evoshare][By friki100].mkv400,27 MB
Chobits 20 [DVD+DVD][x264-AC3][Evoshare][By friki100].mkv400,34 MB
Chobits 21 [DVD+DVD][x264-AC3][Evoshare][By friki100].mkv400,46 MB
Chobits 22 [DVD+DVD][x264-AC3][Evoshare][By friki100].mkv400,37 MB
Chobits 23 [DVD+DVD][x264-AC3][Evoshare][By friki100].mkv400,07 MB
Chobits 24 [DVD+DVD][x264-AC3][Evoshare][By friki100].mkv392,74 MB
Chobits 24.5 [DVD+DVD][x264-AC3][Evoshare][By friki100].mkv370,56 MB
Chobits OVA Chibits [DVD+DVD][x264-AC3][Evoshare][By friki100].mkv127,17 MB
Chobits SP Avance 08.5 [DVD+DVD][x264-AC3][Evoshare][By friki100].mkv13,92 MB
Chobits SP Avance 16.5 [DVD+DVD][x264-AC3][Evoshare][By friki100].mkv13,86 MB

Hideki es un chico de Hokaido que llega a la gran ciudad de Tokio para ir a la universidad.
Al instante queda anonadado por la gran variedad y cantidad de Persocons: ordenadores personales diseñados para que se parezcan y actúen como animales o inclusos personas.

Hideki es pobre y no tiene dinero para comprarse uno, pero casualmente tiene un encuentro con un Persocon entre unos cubos de basuras. Sin embargo, este regalo del destino se convierte en todo un misterio ya que su Persocon, Chi, es capaz de funcionar sin sistema operativo.

¿Será verdad?


Descarga:
Mostrar
1- https://mega.nz/#!ex5F0aaK!5BJXooVjWNCzk...qKxpQSP8Y4
2- https://mega.nz/#!v1ZyAbgY!hStG7iWuy-0FD...AjzknBfmVY
3- https://mega.nz/#!HkJUwDIK!KpD6KHo8B9JlN...nmTPFWVTqI
4- https://mega.nz/#!a8RlnbrZ!EdaIIUKzt2OnP...vcxS4BJmuA
5- https://mega.nz/#!LxRmWBzB!Icep-C4Q9isYF...AfMXXSd0vk
6- https://mega.nz/#!C8BChDKS!dyQ05cwdTgk_Y...pD-5TfdfOg
7- https://mega.nz/#!u4ZgiCBZ!oon3LJpHuHjtt...oOI7oZsT1A
8- https://mega.nz/#!SxI3lIDB!EfisFn-0YGgpg...rUZvAOevNY
Avance 8.5- https://mega.nz/#!e8pjAD4K!ZcRFLVX-qM6nL...0sdz9dlgaU
8.5- https://mega.nz/#!K5IwyYZS!sfxxEGsfQXvv1...7msKIs8GZ4
9- https://mega.nz/#!rlJzhKTQ!IlBnWVYEODIdX...Fu4IcISQRY
10- https://mega.nz/#!XspDESba!FwMz5RqRRgpgx...-RgQVBdVNU
11- https://mega.nz/#!ephV3LBJ!DiEDR81ST940u...AipkpWsgPY
12- https://mega.nz/#!z8AElRQb!fZ-Rm594z4nk_...ClkDaSyDeY
13- https://mega.nz/#!rwhjXITK!JJmZPLHSmoB6Q...oS2-YA7Y5s
14- https://mega.nz/#!mhpxSJDC!4eHr9YEj-uePT...6zG0RIasno
15- https://mega.nz/#!HgoGDZ5C!WqGA5qn_Sx3NN...8NZDSL_OUM
16- https://mega.nz/#!yhgXTIQI!f7ap2t6bCQTQK...re_SeartZg
Avance 16.5- https://mega.nz/#!L5ZzwIwC!b8_IZnuFWBxsa...Aii5XCwTwc
16.5- https://mega.nz/#!T9gACbJb!QGhmwWxEzcD0j...ilFTjOXTZU
17- https://mega.nz/#!esBwkDYB!94vmQVdT0ScMT...NqKIUAmiFM
18- https://mega.nz/#!nlRyhYxC!mMe-HyxXJvSpR...tuxi9Fq4tU
19- https://mega.nz/#!6tgB0QLR!4poBFTyP9_RRJ...N0HQJ5Kd9Q
20- https://mega.nz/#!WwYVGCbA!GMRsQRmAo5q05...o27ntEfHc4
21- https://mega.nz/#!a9ZSCLIB!4Yz7-YxnQRpW7...562KrXYstk
22- https://mega.nz/#!ixJyRChJ!_btZwN_lPdvFX...T0xRglwx2A
23- https://mega.nz/#!6gxBFJiB!fZ_sLos3ERkSK...dCmRE0tFtI
24- https://mega.nz/#!u1JUmZxC!rE-TPfBNQ-6Uw...XAM1_pCA8I
24.5- https://mega.nz/#!20QVGTaY!3h5_c70b55Eta...JW_5YYs4lk
OVA- https://mega.nz/#!2pohQazT!mI-MxxP9r02fT...LV3gQcOUDw

Nota: Los especiales no tienen subtítulos.
11 Mar 2018, 03:52
Mensaje: #2

RE: Chobits

Consejo antes que algún azul te la manden al ataud, 1280x720 no es DVD, otra cosa la única blu-ray de CHOBITS es 960x720
11 Mar 2018, 08:18
Mensaje: #3

RE: Chobits

HocchannoFansub, este montaje es un upscale del DVD y está comprimido mediante bitrate, pero como se hizo antes del 2013 se salva de ir a la papelera.

MediaInfo:
Mostrar
Chobits 01 [DVD+DVD][x264-AC3][Evoshare][By friki100].mkv
Format : Matroska
Format version : Version 2
File size : 401 MiB
Duration : 24 min 10 s
Overall bit rate : 2 317 kb/s
Movie name : Chobits ちょびっツ [01/24][DVD+DVD][By friki100][Evoshare]
Encoded date : UTC 2010-03-30 09:14:32
Writing application : mkvmerge v3.3.0 ('Language') built on Mar 24 2010 14:59:24
Writing library : libebml v0.8.0 + libmatroska v0.9.0

Video
ID : 1
Format : AVC
Format/Info : Advanced Video Codec
Format profile : High@L4.1
Format settings : CABAC / 5 Ref Frames
Format settings, CABAC : Yes
Format settings, ReFrames : 5 frames
Codec ID : V_MPEG4/ISO/AVC
Duration : 24 min 10 s
Bit rate : 1 800 kb/s
Width : 1 280 pixels
Height : 720 pixels
Display aspect ratio : 16:9
Frame rate mode : Constant
Frame rate : 24.000 FPS
Color space : YUV
Chroma subsampling : 4:2:0
Bit depth : 8 bits
Scan type : Progressive
Bits/(Pixel*Frame) : 0.081
Stream size : 304 MiB (76Loco
Title : x264 1280x720@VFR DVD
Writing library : x264 core 89 r1471kGIT 1144615
Encoding settings : cabac=1 / ref=5 / deblock=1:1:1 / analyse=0x3:0x113 / me=umh / subme=7 / psy=1 / psy_rd=0.60:0.00 / mixed_ref=1 / me_range=16 / chroma_me=1 / trellis=1 / 8x8dct=1 / cqm=0 / deadzone=21,11 / fast_pskip=0 / chroma_qp_offset=-2 / threads=3 / sliced_threads=0 / nr=0 / decimate=1 / interlaced=0 / constrained_intra=0 / bframes=3 / b_pyramid=0 / b_adapt=2 / b_bias=0 / direct=3 / wpredb=0 / wpredp=2 / keyint=250 / keyint_min=25 / scenecut=40 / intra_refresh=0 / rc_lookahead=40 / rc=2pass / mbtree=1 / bitrate=1800 / ratetol=1.0 / qcomp=0.60 / qpmin=10 / qpmax=51 / qpstep=4 / cplxblur=20.0 / qblur=0.5 / vbv_maxrate=50000 / vbv_bufsize=50000 / ip_ratio=1.40 / aq=1:0.00 / pulldown=0 / nal_hrd=none
Language : Japanese
Default : No
Forced : No

Audio #1
ID : 2
Format : AC-3
Format/Info : Audio Coding 3
Codec ID : A_AC3
Duration : 24 min 10 s
Bit rate mode : Constant
Bit rate : 256 kb/s
Channel(s) : 2 channels
Channel positions : Front: L R
Sampling rate : 48.0 kHz
Frame rate : 31.250 FPS (1536 SPF)
Bit depth : 16 bits
Compression mode : Lossy
Delay relative to video : 4 ms
Stream size : 44.3 MiB (11Loco
Title : Chii despierta
Language : Spanish
Service kind : Complete Main
Default : Yes
Forced : No

Audio #2
ID : 3
Format : AC-3
Format/Info : Audio Coding 3
Codec ID : A_AC3
Duration : 24 min 10 s
Bit rate mode : Constant
Bit rate : 256 kb/s
Channel(s) : 2 channels
Channel positions : Front: L R
Sampling rate : 48.0 kHz
Frame rate : 31.250 FPS (1536 SPF)
Bit depth : 16 bits
Compression mode : Lossy
Delay relative to video : 4 ms
Stream size : 44.3 MiB (11Loco
Title : ちぃ 目覚める
Language : Japanese
Service kind : Complete Main
Default : No
Forced : No

Text
ID : 4
Format : ASS
Codec ID : S_TEXT/ASS
Codec ID/Info : Advanced Sub Station Alpha
Compression mode : Lossless
Title : Subtítulos en español
Language : Spanish
Default : No
Forced : No

@Garganta-Profunda, ¿dónde están los subtítulos de los especiales?
Dentro de los archivos no hay ni rastro de ellos, y tampoco están pegados al vídeo.
11 Mar 2018, 08:29
Mensaje: #4

RE: Chobits

El TK español.

11 Mar 2018, 09:02 (Este mensaje fue modificado por última vez en: 11 Mar 2018 09:07 por Garganta-Profunda)
Mensaje: #5

RE: Chobits

Puesss ni idea yo me limite a subirlo tal cual se subio de donde lo descargue.

y lo único que no subí fueron unos avances pero ahora que lo miro efectivamente no lo subtitularon

Edito:

Avances Subidos pero efectivamente no lo subtitularon
11 Mar 2018, 10:29
Mensaje: #6

RE: Chobits

Un upscale, y tan bestia no puede ser principal, no, no puede. Taringa ven a mi.
11 Mar 2018, 12:24
Mensaje: #7

RE: Chobits

(11 Mar 2018 10:29)Kamina escribió:  Un upscale, y tan bestia no puede ser principal, no, no puede. Taringa ven a mi.

Muchos Bluray son upscales xD

Sin entrar en factores técnicos a mi personalmente se me ve mejor esta versión en la tele que la otra
11 Mar 2018, 22:41
Mensaje: #8

RE: Chobits

A ver, señores, esas formas: muchas gracias.
12 Mar 2018, 02:17
Mensaje: #9

RE: Chobits

(11 Mar 2018 08:18)Tret escribió:  HocchannoFansub, este montaje es un upscale del DVD y está comprimido mediante bitrate, pero como se hizo antes del 2013 se salva de ir a la papelera.

MediaInfo:
Mostrar
Chobits 01 [DVD+DVD][x264-AC3][Evoshare][By friki100].mkv
Format : Matroska
Format version : Version 2
File size : 401 MiB
Duration : 24 min 10 s
Overall bit rate : 2 317 kb/s
Movie name : Chobits ちょびっツ [01/24][DVD+DVD][By friki100][Evoshare]
Encoded date : UTC 2010-03-30 09:14:32
Writing application : mkvmerge v3.3.0 ('Language') built on Mar 24 2010 14:59:24
Writing library : libebml v0.8.0 + libmatroska v0.9.0

Video
ID : 1
Format : AVC
Format/Info : Advanced Video Codec
Format profile : High@L4.1
Format settings : CABAC / 5 Ref Frames
Format settings, CABAC : Yes
Format settings, ReFrames : 5 frames
Codec ID : V_MPEG4/ISO/AVC
Duration : 24 min 10 s
Bit rate : 1 800 kb/s
Width : 1 280 pixels
Height : 720 pixels
Display aspect ratio : 16:9
Frame rate mode : Constant
Frame rate : 24.000 FPS
Color space : YUV
Chroma subsampling : 4:2:0
Bit depth : 8 bits
Scan type : Progressive
Bits/(Pixel*Frame) : 0.081
Stream size : 304 MiB (76Loco
Title : x264 1280x720@VFR DVD
Writing library : x264 core 89 r1471kGIT 1144615
Encoding settings : cabac=1 / ref=5 / deblock=1:1:1 / analyse=0x3:0x113 / me=umh / subme=7 / psy=1 / psy_rd=0.60:0.00 / mixed_ref=1 / me_range=16 / chroma_me=1 / trellis=1 / 8x8dct=1 / cqm=0 / deadzone=21,11 / fast_pskip=0 / chroma_qp_offset=-2 / threads=3 / sliced_threads=0 / nr=0 / decimate=1 / interlaced=0 / constrained_intra=0 / bframes=3 / b_pyramid=0 / b_adapt=2 / b_bias=0 / direct=3 / wpredb=0 / wpredp=2 / keyint=250 / keyint_min=25 / scenecut=40 / intra_refresh=0 / rc_lookahead=40 / rc=2pass / mbtree=1 / bitrate=1800 / ratetol=1.0 / qcomp=0.60 / qpmin=10 / qpmax=51 / qpstep=4 / cplxblur=20.0 / qblur=0.5 / vbv_maxrate=50000 / vbv_bufsize=50000 / ip_ratio=1.40 / aq=1:0.00 / pulldown=0 / nal_hrd=none
Language : Japanese
Default : No
Forced : No

Audio #1
ID : 2
Format : AC-3
Format/Info : Audio Coding 3
Codec ID : A_AC3
Duration : 24 min 10 s
Bit rate mode : Constant
Bit rate : 256 kb/s
Channel(s) : 2 channels
Channel positions : Front: L R
Sampling rate : 48.0 kHz
Frame rate : 31.250 FPS (1536 SPF)
Bit depth : 16 bits
Compression mode : Lossy
Delay relative to video : 4 ms
Stream size : 44.3 MiB (11Loco
Title : Chii despierta
Language : Spanish
Service kind : Complete Main
Default : Yes
Forced : No

Audio #2
ID : 3
Format : AC-3
Format/Info : Audio Coding 3
Codec ID : A_AC3
Duration : 24 min 10 s
Bit rate mode : Constant
Bit rate : 256 kb/s
Channel(s) : 2 channels
Channel positions : Front: L R
Sampling rate : 48.0 kHz
Frame rate : 31.250 FPS (1536 SPF)
Bit depth : 16 bits
Compression mode : Lossy
Delay relative to video : 4 ms
Stream size : 44.3 MiB (11Loco
Title : ちぃ 目覚める
Language : Japanese
Service kind : Complete Main
Default : No
Forced : No

Text
ID : 4
Format : ASS
Codec ID : S_TEXT/ASS
Codec ID/Info : Advanced Sub Station Alpha
Compression mode : Lossless
Title : Subtítulos en español
Language : Spanish
Default : No
Forced : No

@Garganta-Profunda, ¿dónde están los subtítulos de los especiales?
Dentro de los archivos no hay ni rastro de ellos, y tampoco están pegados al vídeo.

ok, tu mandas (al menos deberían cambiar eso de "DVD" en 1280x720 eso fue lo que me llamo más la atención), fue un consejo nomas



Usuario(s) navegando en este tema: 1 invitado(s)