¡Hola, Invitado! (Iniciar sesiónRegístrate)
Hora: 25 Sep 2018, 23:23

 
Calificación:
  • 0 votos - 0 Media
  • 1
  • 2
  • 3
  • 4
  • 5

Akira

15 May 2018, 00:51 (Este mensaje fue modificado por última vez en: 15 May 2018 00:54 por KaitoXYZ)
Mensaje: #1

Akira

Año 2019. Neo-Tokyo es una ciudad construida sobre las ruinas de la antigua capital japonesa destruida tras la Tercera Guerra Mundial. Japón es un país al borde del colapso que sufre continuas crisis políticas. En secreto, un equipo de científicos ha reanudado por orden del ejército un experimento para encontrar a individuos que puedan controlar el arma definitiva: una fuerza denominada "la energía absoluta". Pero los habitantes de Neo-Tokyo tienen otras cosas de las que preocuparse. Uno de ellos es Kaneda, un joven pandillero líder de una banda de motoristas. Durante una pelea, su mejor amigo, Tetsuo, sufre un extraño accidente y termina ingresado en unas instalaciones militares. Allí los científicos descubrirán que es el poseedor de la energía absoluta. Pero Tetsuo, que no se resigna a convertirse en un conejillo de indias, muy pronto se convertirá en la amenaza más grande que el mundo ha conocido.

Capturas:
Mostrar
Akira - 1_7953Akira - 2_7954Akira - 3_7955Akira - 4_7956Akira - 5_7957Akira - 6_7958Akira - 7_7959Akira - 8_7960Akira - 9_7961

Los subs que aparecen en las capturas son los de EvoShare.


MediaInfo:
Mostrar
General
Unique ID : 137123373732772953623320760787179654656 (0x6729004BAD3CE074BAA64578CBB3CE00)
Complete name : H:\Animes\ Peliculas\Akira [BD 1080p] [MultiAudio Es(x3)-Lat-Cat-Val-Jap] [MultiSubs Es(x2)-Eng] [C97A2AA8].mkv
Format : Matroska
Format version : Version 4 / Version 2
File size : 7.93 GiB
Duration : 2 h 4 min
Overall bit rate mode : Variable
Overall bit rate : 9 118 kb/s
Encoded date : UTC 2018-05-11 20:00:36
Writing application : mkvmerge v21.0.0 ('Tardigrades Will Inherit The Earth') 64-bit
Writing library : libebml v1.3.5 + libmatroska v1.4.8
Attachments : AveriaSerif-Bold.ttf / Barmeno-ExtraBold.otf / OpenSans-Semibold.ttf / OpenSans-SemiboldItalic.ttf

Video
ID : 1
Format : AVC
Format/Info : Advanced Video Codec
Format profile : High@L4.1
Format settings : CABAC / 3 Ref Frames
Format settings, CABAC : Yes
Format settings, ReFrames : 3 frames
Codec ID : V_MPEG4/ISO/AVC
Duration : 2 h 4 min
Bit rate mode : Variable
Bit rate : 3 000 kb/s
Maximum bit rate : 40.0 Mb/s
Width : 1 920 pixels
Height : 1 048 pixels
Display aspect ratio : 1.85:1
Frame rate mode : Constant
Frame rate : 23.976 (23976/1000) FPS
Original frame rate : 23.976 (24000/1001) FPS
Color space : YUV
Chroma subsampling : 4:2:0
Bit depth : 8 bits
Scan type : Progressive
Bits/(Pixel*Frame) : 0.062
Stream size : 2.60 GiB (33%)
Writing library : x264 core 114 r1924 08d04a4
Encoding settings : cabac=1 / ref=4 / deblock=1:1:1 / analyse=0x3:0x113 / me=hex / subme=7 / psy=1 / psy_rd=0.40:0.00 / mixed_ref=1 / me_range=16 / chroma_me=1 / trellis=1 / 8x8dct=1 / cqm=0 / deadzone=21,11 / fast_pskip=1 / chroma_qp_offset=-2 / threads=9 / sliced_threads=0 / slices=4 / nr=0 / decimate=1 / interlaced=0 / constrained_intra=0 / bframes=3 / b_pyramid=1 / b_adapt=1 / b_bias=0 / direct=1 / weightb=1 / open_gop=0 / weightp=0 / keyint=24 / keyint_min=2 / scenecut=40 / intra_refresh=0 / rc_lookahead=24 / rc=2pass / mbtree=1 / bitrate=3000 / ratetol=1.0 / qcomp=0.60 / qpmin=0 / qpmax=51 / qpstep=4 / cplxblur=20.0 / qblur=0.5 / vbv_maxrate=40000 / vbv_bufsize=30000 / nal_hrd=vbr / ip_ratio=1.40 / aq=1:0.60
Language : Japanese
Default : Yes
Forced : No
Color range : Limited
Color primaries : BT.709
Transfer characteristics : BT.709
Matrix coefficients : BT.709

Audio #1
ID : 2
Format : FLAC
Format/Info : Free Lossless Audio Codec
Codec ID : A_FLAC
Duration : 2 h 4 min
Bit rate mode : Variable
Bit rate : 402 kb/s
Channel(s) : 2 channels
Channel positions : Front: L R
Sampling rate : 48.0 kHz
Frame rate : 11.719 FPS (4096 SPF)
Bit depth : 16 bits
Stream size : 358 MiB (4%)
Title : FLAC 2.0 Español (España) [Doblaje 1992]
Writing library : libFLAC 1.2.1 (UTC 2007-09-17)
Language : Spanish
Default : Yes
Forced : No

Audio #2
ID : 3
Format : AAC
Format/Info : Advanced Audio Codec
Format profile : LC
Codec ID : A_AAC-2
Duration : 2 h 4 min
Bit rate : 329 kb/s
Channel(s) : 6 channels
Channel positions : Front: L C R, Side: L R, LFE
Sampling rate : 48.0 kHz
Frame rate : 46.875 FPS (1024 SPF)
Compression mode : Lossy
Delay relative to video : 9 ms
Stream size : 292 MiB (4%)
Title : AAC 5.1 Español (España) [Doblaje 2002]
Language : Spanish
Default : No
Forced : No

Audio #3
ID : 4
Format : FLAC
Format/Info : Free Lossless Audio Codec
Codec ID : A_FLAC
Duration : 2 h 4 min
Bit rate mode : Variable
Bit rate : 2 117 kb/s
Channel(s) : 6 channels
Channel positions : Front: L C R, Side: L R, LFE
Sampling rate : 96.0 kHz
Frame rate : 23.438 FPS (4096 SPF)
Bit depth : 16 bits
Stream size : 1.84 GiB (23%)
Title : FLAC 5.1 Español (España) [Doblaje 2004]
Writing library : libFLAC 1.2.1 (UTC 2007-09-17)
Language : Spanish
Default : No
Forced : No

Audio #4
ID : 5
Format : AC-3
Format/Info : Audio Coding 3
Codec ID : A_AC3
Duration : 2 h 4 min
Bit rate mode : Constant
Bit rate : 448 kb/s
Channel(s) : 6 channels
Channel positions : Front: L C R, Side: L R, LFE
Sampling rate : 48.0 kHz
Frame rate : 31.250 FPS (1536 SPF)
Bit depth : 16 bits
Compression mode : Lossy
Stream size : 399 MiB (5%)
Title : AC3 5.1 Español (Latino)
Language : Latin
Service kind : Complete Main
Default : No
Forced : No

Audio #5
ID : 6
Format : FLAC
Format/Info : Free Lossless Audio Codec
Codec ID : A_FLAC
Duration : 2 h 4 min
Bit rate mode : Variable
Bit rate : 681 kb/s
Channel(s) : 2 channels
Channel positions : Front: L R
Sampling rate : 48.0 kHz
Frame rate : 11.719 FPS (4096 SPF)
Bit depth : 16 bits
Stream size : 607 MiB (7%)
Title : FLAC 2.0 Catalán
Writing library : libFLAC 1.2.1 (UTC 2007-09-17)
Language : Catalan
Default : No
Forced : No

Audio #6
ID : 7
Format : FLAC
Format/Info : Free Lossless Audio Codec
Codec ID : A_FLAC
Duration : 2 h 4 min
Bit rate mode : Variable
Bit rate : 629 kb/s
Channel(s) : 2 channels
Channel positions : Front: L R
Sampling rate : 48.0 kHz
Frame rate : 11.719 FPS (4096 SPF)
Bit depth : 16 bits
Stream size : 560 MiB (7%)
Title : FLAC 2.0 Valenciano
Writing library : libFLAC 1.2.1 (UTC 2007-09-17)
Language : Catalan
Default : No
Forced : No

Audio #7
ID : 8
Format : DTS
Format/Info : Digital Theater Systems
Codec ID : A_DTS
Duration : 2 h 4 min
Bit rate mode : Constant
Bit rate : 1 510 kb/s
Channel(s) : 6 channels
Channel positions : Front: L C R, Side: L R, LFE
Sampling rate : 48.0 kHz
Frame rate : 93.750 FPS (512 SPF)
Bit depth : 24 bits
Compression mode : Lossy
Stream size : 1.31 GiB (17%)
Title : DTS 5.1 Japonés
Language : Japanese
Default : No
Forced : No

Text #1
ID : 9
Format : ASS
Codec ID : S_TEXT/ASS
Codec ID/Info : Advanced Sub Station Alpha
Duration : 2 h 2 min
Bit rate : 112 b/s
Count of elements : 1520
Compression mode : Lossless
Stream size : 101 KiB (0%)
Title : Español (Anacrónico Fansub)
Language : Spanish
Default : No
Forced : No

Text #2
ID : 10
Format : UTF-8
Codec ID : S_TEXT/UTF8
Codec ID/Info : UTF-8 Plain Text
Duration : 2 h 0 min
Bit rate : 42 b/s
Count of elements : 1061
Stream size : 37.5 KiB (0%)
Title : Español (EvoShare)
Language : Spanish
Default : No
Forced : No

Text #3
ID : 11
Format : ASS
Codec ID : S_TEXT/ASS
Codec ID/Info : Advanced Sub Station Alpha
Duration : 1 h 58 min
Bit rate : 105 b/s
Count of elements : 1631
Compression mode : Lossless
Stream size : 91.9 KiB (0%)
Title : Inglés
Language : English
Default : No
Forced : No

Menu
00:00:00.000 : en:1
00:03:04.309 : en:2
00:05:25.283 : en:3
00:06:58.668 : en:4
00:10:33.508 : en:5
00:12:11.731 : en:6
00:16:53.888 : en:7
00:20:37.445 : en:8
00:23:45.341 : en:9
00:26:44.686 : en:10
00:29:10.082 : en:11
00:32:10.512 : en:12
00:35:21.578 : en:13
00:38:14.250 : en:14
00:41:23.147 : en:15
00:45:05.703 : en:16
00:47:40.107 : en:17
00:53:16.485 : en:18
00:57:16.850 : en:19
01:02:32.207 : en:20
01:05:30.176 : en:21
01:08:36.404 : en:22
01:11:11.058 : en:23
01:14:30.466 : en:24
01:18:12.271 : en:25
01:21:31.428 : en:26
01:25:57.486 : en:27
01:30:47.359 : en:28
01:36:05.510 : en:29
01:39:38.806 : en:30
01:41:54.900 : en:31
01:45:42.336 : en:32
01:49:21.680 : en:33
01:52:23.695 : en:34
01:56:06.960 : en:35
01:58:25.015 : en:36
15 May 2018, 04:42
Mensaje: #2

RE: Akira

Cero. Eso es lo que te cuesta leer las normas, Maestro Subidas.

15 May 2018, 12:47
Mensaje: #3

RE: Akira

Siempre se agradece el esfuerzo y dedicación a la hora de crear las fichas, pero lamentablemente esta incumple una de las normas de subida ya que está en bitrate y existen miles de alternativas mejores, así pues procedo a mover el tema a la papelera.


Usuario(s) navegando en este tema: 1 invitado(s)