¡Hola, Invitado! (Iniciar sesiónRegístrate)
Hora: 11 Aug 2020, 23:51
¿Sabías que haciendo una donación única o suscribiéndote en Patreon puedes hacerte VIP para navegar sin publicidad y obtener acceso al tracker privado con DVDs/BDs?

 
Calificación:
  • 0 votos - 0 Media
  • 1
  • 2
  • 3
  • 4
  • 5

El Hada del Bosque

25 Jun 2018, 07:15
Mensaje: #1

El Hada del Bosque

Ven a un viaje místico, a un bosque encantado donde la hada mágica cumplirá cada uno de tus deseos sexuales. Pero puede que su oscuro pasado se manifieste en forma de amor o rabia y te llevará por un camino oscuro...


25 Jun 2018, 07:59
Mensaje: #2

RE: El Hada del Bosque

Una obra de culto, gracias.

04 Jul 2018, 16:05
Mensaje: #3

RE: El Hada del Bosque

Muevo el tema a la papelera por incumplir la siguiente norma: "No se permite subir animes que han sido comprimidos usando H.263 (DivX o Xvid) ni MPEG2 si el fansub ha trabajado dicho anime después del año 2013".

MediaInfo:
Mostrar
[CAL]_El_Hada_del_Bosque_[47F92B94].mkv
Format : Matroska
Format version : Version 2
File size : 349 MiB
Duration : 21 min 45 s
Overall bit rate : 2 241 kb/s
Encoded date : UTC 2018-02-28 22:32:11
Writing application : mkvmerge v5.0.1 ('Es ist Sommer') built on Oct 9 2011 11:55:43
Writing library : libebml v1.2.2 + libmatroska v1.3.0

Video
ID : 1
Format : MPEG-4 Visual
Format profile : Advanced Simple@L5
Format settings : BVOP1 / Custom Matrix
Format settings, BVOP : 1
Format settings, QPel : No
Format settings, GMC : No warppoints
Format settings, Matrix : Custom
Codec ID : V_MS/VFW/FOURCC / XVID
Codec ID/Hint : XviD
Duration : 21 min 45 s
Bit rate : 1 940 kb/s
Width : 640 pixels
Height : 480 pixels
Display aspect ratio : 4:3
Frame rate mode : Constant
Frame rate : 25.000 FPS
Color space : YUV
Chroma subsampling : 4:2:0
Bit depth : 8 bits
Scan type : Progressive
Compression mode : Lossy
Bits/(Pixel*Frame) : 0.253
Stream size : 302 MiB (87Loco
Writing library : XviD 63
Default : Yes
Forced : No

Audio #1
ID : 2
Format : MPEG Audio
Format version : Version 1
Format profile : Layer 3
Format settings : Joint stereo / MS Stereo
Muxing mode : Header stripping
Codec ID : A_MPEG/L3
Codec ID/Hint : MP3
Duration : 21 min 45 s
Bit rate mode : Constant
Bit rate : 128 kb/s
Channel(s) : 2 channels
Sampling rate : 48.0 kHz
Frame rate : 41.667 FPS (1152 SPF)
Compression mode : Lossy
Stream size : 19.9 MiB (6Loco
Writing library : LAME3.98r
Encoding settings : -m j -V 4 -q 2 -lowpass 17 -b 128
Language : Spanish
Default : Yes
Forced : No

Audio #2
ID : 3
Format : MPEG Audio
Format version : Version 1
Format profile : Layer 3
Format settings : Joint stereo / MS Stereo
Muxing mode : Header stripping
Codec ID : A_MPEG/L3
Codec ID/Hint : MP3
Duration : 21 min 45 s
Bit rate mode : Constant
Bit rate : 128 kb/s
Channel(s) : 2 channels
Sampling rate : 48.0 kHz
Frame rate : 41.667 FPS (1152 SPF)
Compression mode : Lossy
Stream size : 19.9 MiB (6Loco
Writing library : LAME3.98r
Encoding settings : -m j -V 4 -q 2 -lowpass 17 -b 128
Language : Japanese
Default : No
Forced : No

Text #1
ID : 4
Format : ASS
Codec ID : S_TEXT/ASS
Codec ID/Info : Advanced Sub Station Alpha
Compression mode : Lossless
Language : English
Default : No
Forced : No

Text #2
ID : 5
Format : ASS
Codec ID : S_TEXT/ASS
Codec ID/Info : Advanced Sub Station Alpha
Compression mode : Lossless
Language : Russian
Default : No
Forced : No

En este caso se ha decidido no aplicar el criterio de validación excepcional porque ya existe una versión que cumple las normas del foro.


Usuario(s) navegando en este tema: 1 invitado(s)