¡Hola, Invitado! (Iniciar sesiónRegístrate)
Hora: 16 Nov 2018, 05:31

The Guardian Brothers

11 Oct 2018, 23:27 (Este mensaje fue modificado por última vez en: 18 Oct 2018 21:25 por Tret)
Mensaje: #1

The Guardian Brothers

Completo The Guardian Brothers

Título original: Xiao Men Shen
Fansub: Magilou
Público: Mina
Ambientación: Fantasía
Género: Comedia
Título para Hispanoamérica: Los hermanos guardianes
1
Duración: 1 h. 25 min.
2016
Video: 1920x1080 H.264
Contenedor: MKVSoftsubs
Audio:
Servidor:
Solo los usuarios registrados pueden descargar por torrent
Archivos Torrent:[mostrar archivos]
[Magilou] The Guardian Brothers [NF WEB-DL 1080p] [Multi-Audio-Multi-Subs] [E83F9BB3].mkv6,52 GB
El restaurante de una familia china se convierte en el objetivo de la competencia, y dos espíritus guardianes abandonan su descanso para protegerlo.


Descarga:
Mostrar

Mediainfo:
Mostrar
General
Unique ID : 114180379286695721055474056926053480053 (0x55E65755CD21FFEA96F88A4436D73675)
Complete name : D:\Haru el baneado\[Magilou] The Guardian Brothers [NF WEB-DL 1080p] [Multi-Audio-Multi-Subs] [E83F9BB3].mkv
Format : Matroska
Format version : Version 4 / Version 2
File size : 6.52 GiB
Duration : 1 h 25 min
Overall bit rate mode : Variable
Overall bit rate : 10.9 Mb/s
Encoded date : UTC 2018-10-11 20:30:07
Writing application : mkvmerge v21.0.0 ('Tardigrades Will Inherit The Earth') 64-bit
Writing library : libebml v1.3.5 + libmatroska v1.4.8

Video
ID : 1
Format : AVC
Format/Info : Advanced Video Codec
Format profile : Main@L4
Format settings : CABAC / 3 Ref Frames
Format settings, CABAC : Yes
Format settings, RefFrames : 3 frames
Codec ID : V_MPEG4/ISO/AVC
Duration : 1 h 25 min
Bit rate mode : Variable
Bit rate : 5 110 kb/s
Maximum bit rate : 7 665 kb/s
Width : 1 920 pixels
Height : 1 080 pixels
Display aspect ratio : 16:9
Frame rate mode : Constant
Frame rate : 24.000 FPS
Color space : YUV
Chroma subsampling : 4:2:0
Bit depth : 8 bits
Scan type : Progressive
Bits/(Pixel*Frame) : 0.103
Stream size : 3.06 GiB (47Loco
Writing library : x264 core 118
Encoding settings : cabac=1 / ref=3 / deblock=1:0:0 / analyse=0x1:0x111 / me=umh / subme=10 / psy=1 / psy_rd=1.00:0.00 / mixed_ref=1 / me_range=24 / chroma_me=1 / trellis=2 / 8x8dct=0 / cqm=0 / deadzone=21,11 / fast_pskip=1 / chroma_qp_offset=-2 / threads=8 / sliced_threads=0 / nr=0 / decimate=1 / interlaced=0 / bluray_compat=0 / constrained_intra=0 / bframes=2 / b_pyramid=0 / b_adapt=2 / b_bias=0 / direct=3 / weightb=1 / open_gop=0 / weightp=2 / keyint=48 / keyint_min=25 / scenecut=0 / intra_refresh=0 / rc_lookahead=0 / rc=2pass / mbtree=1 / bitrate=5110 / ratetol=1.0 / qcomp=0.50 / qpmin=6 / qpmax=51 / qpstep=4 / cplxblur=20.0 / qblur=0.5 / vbv_maxrate=7665 / vbv_bufsize=10220 / nal_hrd=vbr / ip_ratio=1.40 / aq=1:1.00
Default : Yes
Forced : No

Audio #1
ID : 34
Format : E-AC-3
Format/Info : Enhanced Audio Coding 3
Codec ID : A_EAC3
Duration : 1 h 25 min
Bit rate mode : Constant
Bit rate : 640 kb/s
Channel(s) : 6 channels
Channel positions : Front: L C R, Side: L R, LFE
Sampling rate : 48.0 kHz
Frame rate : 187.500 FPS (256 SPF)
Compression mode : Lossy
Stream size : 393 MiB (6Loco
Title : Spanish
Language : Spanish
Service kind : Complete Main
Default : Yes
Forced : No

Audio #2
ID : 35
Format : E-AC-3
Format/Info : Enhanced Audio Coding 3
Codec ID : A_EAC3
Duration : 1 h 25 min
Bit rate mode : Constant
Bit rate : 640 kb/s
Channel(s) : 6 channels
Channel positions : Front: L C R, Side: L R, LFE
Sampling rate : 48.0 kHz
Frame rate : 187.500 FPS (256 SPF)
Compression mode : Lossy
Stream size : 393 MiB (6Loco
Title : Polish
Language : Polish
Service kind : Complete Main
Default : No
Forced : No

Audio #3
ID : 36
Format : E-AC-3
Format/Info : Enhanced Audio Coding 3
Codec ID : A_EAC3
Duration : 1 h 25 min
Bit rate mode : Constant
Bit rate : 640 kb/s
Channel(s) : 6 channels
Channel positions : Front: L C R, Side: L R, LFE
Sampling rate : 48.0 kHz
Frame rate : 187.500 FPS (256 SPF)
Compression mode : Lossy
Stream size : 393 MiB (6Loco
Title : Brazilian Portuguese
Language : Portuguese
Service kind : Complete Main
Default : No
Forced : No

Audio #4
ID : 37
Format : E-AC-3
Format/Info : Enhanced Audio Coding 3
Codec ID : A_EAC3
Duration : 1 h 25 min
Bit rate mode : Constant
Bit rate : 640 kb/s
Channel(s) : 6 channels
Channel positions : Front: L C R, Side: L R, LFE
Sampling rate : 48.0 kHz
Frame rate : 187.500 FPS (256 SPF)
Compression mode : Lossy
Stream size : 393 MiB (6Loco
Title : Turkish
Language : Turkish
Service kind : Complete Main
Default : No
Forced : No

Audio #5
ID : 38
Format : E-AC-3
Format/Info : Enhanced Audio Coding 3
Codec ID : A_EAC3
Duration : 1 h 25 min
Bit rate mode : Constant
Bit rate : 640 kb/s
Channel(s) : 6 channels
Channel positions : Front: L C R, Side: L R, LFE
Sampling rate : 48.0 kHz
Frame rate : 187.500 FPS (256 SPF)
Compression mode : Lossy
Stream size : 393 MiB (6Loco
Title : English
Language : English
Service kind : Complete Main
Default : No
Forced : No

Audio #6
ID : 39
Format : E-AC-3
Format/Info : Enhanced Audio Coding 3
Codec ID : A_EAC3
Duration : 1 h 25 min
Bit rate mode : Constant
Bit rate : 640 kb/s
Channel(s) : 6 channels
Channel positions : Front: L C R, Side: L R, LFE
Sampling rate : 48.0 kHz
Frame rate : 187.500 FPS (256 SPF)
Compression mode : Lossy
Stream size : 393 MiB (6Loco
Title : French
Language : French
Service kind : Complete Main
Default : No
Forced : No

Audio #7
ID : 40
Format : E-AC-3
Format/Info : Enhanced Audio Coding 3
Codec ID : A_EAC3
Duration : 1 h 25 min
Bit rate mode : Constant
Bit rate : 640 kb/s
Channel(s) : 6 channels
Channel positions : Front: L C R, Side: L R, LFE
Sampling rate : 48.0 kHz
Frame rate : 187.500 FPS (256 SPF)
Compression mode : Lossy
Stream size : 393 MiB (6Loco
Title : German
Language : German
Service kind : Complete Main
Default : No
Forced : No

Audio #8
ID : 41
Format : E-AC-3
Format/Info : Enhanced Audio Coding 3
Codec ID : A_EAC3
Duration : 1 h 25 min
Bit rate mode : Constant
Bit rate : 640 kb/s
Channel(s) : 6 channels
Channel positions : Front: L C R, Side: L R, LFE
Sampling rate : 48.0 kHz
Frame rate : 187.500 FPS (256 SPF)
Compression mode : Lossy
Stream size : 393 MiB (6Loco
Title : Italian
Language : Italian
Service kind : Complete Main
Default : No
Forced : No

Audio #9
ID : 42
Format : E-AC-3
Format/Info : Enhanced Audio Coding 3
Codec ID : A_EAC3
Duration : 1 h 25 min
Bit rate mode : Constant
Bit rate : 640 kb/s
Channel(s) : 6 channels
Channel positions : Front: L C R, Side: L R, LFE
Sampling rate : 48.0 kHz
Frame rate : 187.500 FPS (256 SPF)
Compression mode : Lossy
Stream size : 393 MiB (6Loco
Title : Japanese
Language : Japanese
Service kind : Complete Main
Default : No
Forced : No

Text #1
ID : 2
Format : UTF-8
Codec ID : S_TEXT/UTF8
Codec ID/Info : UTF-8 Plain Text
Duration : 1 h 24 min
Bit rate : 66 b/s
Count of elements : 1405
Stream size : 41.5 KiB (0Loco
Title : English [SDH]
Language : English
Default : No
Forced : No

Text #2
ID : 3
Format : UTF-8
Codec ID : S_TEXT/UTF8
Codec ID/Info : UTF-8 Plain Text
Duration : 1 h 22 min
Bit rate : 0 b/s
Count of elements : 9
Stream size : 209 Bytes (0Loco
Title : Castilian [Forced]
Language : Spanish
Default : No
Forced : Yes

Text #3
ID : 4
Format : UTF-8
Codec ID : S_TEXT/UTF8
Codec ID/Info : UTF-8 Plain Text
Duration : 1 h 25 min
Bit rate : 47 b/s
Count of elements : 1042
Stream size : 29.9 KiB (0Loco
Title : Castilian [Full]
Language : Spanish
Default : No
Forced : No

Text #4
ID : 5
Format : UTF-8
Codec ID : S_TEXT/UTF8
Codec ID/Info : UTF-8 Plain Text
Duration : 44 min 16 s
Bit rate : 0 b/s
Count of elements : 8
Stream size : 188 Bytes (0Loco
Title : Spanish [Forced]
Language : Spanish
Default : No
Forced : Yes

Text #5
ID : 6
Format : UTF-8
Codec ID : S_TEXT/UTF8
Codec ID/Info : UTF-8 Plain Text
Duration : 1 h 20 min
Bit rate : 57 b/s
Count of elements : 1061
Stream size : 34.4 KiB (0Loco
Title : Spanish [Full]
Language : Spanish
Default : No
Forced : No

Text #6
ID : 7
Format : UTF-8
Codec ID : S_TEXT/UTF8
Codec ID/Info : UTF-8 Plain Text
Duration : 1 h 22 min
Bit rate : 0 b/s
Count of elements : 7
Stream size : 157 Bytes (0Loco
Title : French [Forced]
Language : French
Default : No
Forced : Yes

Text #7
ID : 8
Format : UTF-8
Codec ID : S_TEXT/UTF8
Codec ID/Info : UTF-8 Plain Text
Duration : 1 h 25 min
Bit rate : 57 b/s
Count of elements : 1023
Stream size : 35.5 KiB (0Loco
Title : French [Full]
Language : French
Default : No
Forced : No

Text #8
ID : 9
Format : UTF-8
Codec ID : S_TEXT/UTF8
Codec ID/Info : UTF-8 Plain Text
Duration : 43 min 40 s
Bit rate : 0 b/s
Count of elements : 7
Stream size : 157 Bytes (0Loco
Title : German [Forced]
Language : German
Default : No
Forced : Yes

Text #9
ID : 10
Format : UTF-8
Codec ID : S_TEXT/UTF8
Codec ID/Info : UTF-8 Plain Text
Duration : 1 h 25 min
Bit rate : 53 b/s
Count of elements : 995
Stream size : 33.3 KiB (0Loco
Title : German [Full]
Language : German
Default : No
Forced : No

Text #10
ID : 11
Format : UTF-8
Codec ID : S_TEXT/UTF8
Codec ID/Info : UTF-8 Plain Text
Duration : 44 min 16 s
Bit rate : 0 b/s
Count of elements : 7
Stream size : 169 Bytes (0Loco
Title : Italian [Forced]
Language : Italian
Default : No
Forced : Yes

Text #11
ID : 12
Format : UTF-8
Codec ID : S_TEXT/UTF8
Codec ID/Info : UTF-8 Plain Text
Duration : 1 h 25 min
Bit rate : 58 b/s
Count of elements : 1017
Stream size : 36.6 KiB (0Loco
Title : Italian [Full]
Language : Italian
Default : No
Forced : No

Text #12
ID : 13
Format : UTF-8
Codec ID : S_TEXT/UTF8
Codec ID/Info : UTF-8 Plain Text
Duration : 1 h 20 min
Bit rate : 52 b/s
Count of elements : 1024
Stream size : 31.2 KiB (0Loco
Title : Portuguese [Full]
Language : Portuguese
Default : No
Forced : No

Text #13
ID : 14
Format : UTF-8
Codec ID : S_TEXT/UTF8
Codec ID/Info : UTF-8 Plain Text
Duration : 43 min 40 s
Bit rate : 0 b/s
Count of elements : 6
Stream size : 122 Bytes (0Loco
Title : Brazilian Portuguese [Forced]
Language : Portuguese
Default : No
Forced : Yes

Text #14
ID : 15
Format : UTF-8
Codec ID : S_TEXT/UTF8
Codec ID/Info : UTF-8 Plain Text
Duration : 1 h 20 min
Bit rate : 51 b/s
Count of elements : 982
Stream size : 30.3 KiB (0Loco
Title : Brazilian Portuguese [Full]
Language : Portuguese
Default : No
Forced : No

Text #15
ID : 16
Format : UTF-8
Codec ID : S_TEXT/UTF8
Codec ID/Info : UTF-8 Plain Text
Duration : 1 h 23 min
Bit rate : 0 b/s
Count of elements : 8
Stream size : 176 Bytes (0Loco
Title : Polish [Forced]
Language : Polish
Default : No
Forced : Yes

Text #16
ID : 17
Format : UTF-8
Codec ID : S_TEXT/UTF8
Codec ID/Info : UTF-8 Plain Text
Duration : 1 h 25 min
Bit rate : 41 b/s
Count of elements : 970
Stream size : 25.7 KiB (0Loco
Title : Polish [Full]
Language : Polish
Default : No
Forced : No

Text #17
ID : 18
Format : UTF-8
Codec ID : S_TEXT/UTF8
Codec ID/Info : UTF-8 Plain Text
Duration : 1 h 19 min
Bit rate : 0 b/s
Count of elements : 10
Stream size : 270 Bytes (0Loco
Title : Turkish [Forced]
Language : Turkish
Default : No
Forced : Yes

Text #18
ID : 19
Format : UTF-8
Codec ID : S_TEXT/UTF8
Codec ID/Info : UTF-8 Plain Text
Duration : 1 h 25 min
Bit rate : 56 b/s
Count of elements : 1055
Stream size : 35.3 KiB (0Loco
Title : Turkish [Full]
Language : Turkish
Default : No
Forced : No

Text #19
ID : 20
Format : UTF-8
Codec ID : S_TEXT/UTF8
Codec ID/Info : UTF-8 Plain Text
Duration : 1 h 25 min
Bit rate : 42 b/s
Count of elements : 699
Stream size : 26.6 KiB (0Loco
Title : Swedish [Full]
Language : Swedish
Default : No
Forced : No

Text #20
ID : 21
Format : UTF-8
Codec ID : S_TEXT/UTF8
Codec ID/Info : UTF-8 Plain Text
Duration : 1 h 25 min
Bit rate : 50 b/s
Count of elements : 891
Stream size : 31.2 KiB (0Loco
Title : Danish [Full]
Language : Danish
Default : No
Forced : No

Text #21
ID : 22
Format : UTF-8
Codec ID : S_TEXT/UTF8
Codec ID/Info : UTF-8 Plain Text
Duration : 1 h 25 min
Bit rate : 48 b/s
Count of elements : 929
Stream size : 30.4 KiB (0Loco
Title : Finnish [Full]
Language : Finnish
Default : No
Forced : No

Text #22
ID : 23
Format : UTF-8
Codec ID : S_TEXT/UTF8
Codec ID/Info : UTF-8 Plain Text
Duration : 1 h 24 min
Bit rate : 42 b/s
Count of elements : 788
Stream size : 26.7 KiB (0Loco
Title : Dutch [Full]
Language : Dutch
Default : No
Forced : No

Text #23
ID : 24
Format : UTF-8
Codec ID : S_TEXT/UTF8
Codec ID/Info : UTF-8 Plain Text
Duration : 1 h 20 min
Bit rate : 49 b/s
Count of elements : 861
Stream size : 29.2 KiB (0Loco
Title : Norwegian [Full]
Language : Norwegian
Default : No
Forced : No

Text #24
ID : 25
Format : UTF-8
Codec ID : S_TEXT/UTF8
Codec ID/Info : UTF-8 Plain Text
Duration : 1 h 25 min
Bit rate : 79 b/s
Count of elements : 1029
Stream size : 49.6 KiB (0Loco
Title : Greek [Full]
Language : Greek
Default : No
Forced : No

Text #25
ID : 26
Format : UTF-8
Codec ID : S_TEXT/UTF8
Codec ID/Info : UTF-8 Plain Text
Duration : 1 h 25 min
Bit rate : 87 b/s
Count of elements : 1057
Stream size : 54.5 KiB (0Loco
Title : Hebrew [Full]
Language : Hebrew
Default : No
Forced : No

Text #26
ID : 27
Format : UTF-8
Codec ID : S_TEXT/UTF8
Codec ID/Info : UTF-8 Plain Text
Duration : 1 h 25 min
Bit rate : 85 b/s
Count of elements : 1058
Stream size : 53.2 KiB (0Loco
Title : Arabic [Full]
Language : Arabic
Default : No
Forced : No

Text #27
ID : 28
Format : UTF-8
Codec ID : S_TEXT/UTF8
Codec ID/Info : UTF-8 Plain Text
Duration : 1 h 25 min
Bit rate : 53 b/s
Count of elements : 962
Stream size : 33.4 KiB (0Loco
Title : Romanian [Full]
Language : Romanian
Default : No
Forced : No

Text #28
ID : 29
Format : UTF-8
Codec ID : S_TEXT/UTF8
Codec ID/Info : UTF-8 Plain Text
Duration : 1 h 25 min
Bit rate : 129 b/s
Count of elements : 1050
Stream size : 80.8 KiB (0Loco
Title : Thai [Full]
Language : Thai
Default : No
Forced : No

Text #29
ID : 30
Format : UTF-8
Codec ID : S_TEXT/UTF8
Codec ID/Info : UTF-8 Plain Text
Duration : 1 h 25 min
Bit rate : 60 b/s
Count of elements : 1066
Stream size : 37.6 KiB (0Loco
Title : Korean [Full]
Language : Korean
Default : No
Forced : No

Text #30
ID : 31
Format : UTF-8
Codec ID : S_TEXT/UTF8
Codec ID/Info : UTF-8 Plain Text
Duration : 1 h 25 min
Bit rate : 46 b/s
Count of elements : 1050
Stream size : 29.0 KiB (0Loco
Title : Chinese (Simplified) [Full]
Language : Chinese
Default : No
Forced : No

Text #31
ID : 32
Format : UTF-8
Codec ID : S_TEXT/UTF8
Codec ID/Info : UTF-8 Plain Text
Duration : 1 h 22 min
Bit rate : 0 b/s
Count of elements : 9
Stream size : 319 Bytes (0Loco
Title : Japanese [Forced]
Language : Japanese
Default : No
Forced : Yes

Text #32
ID : 33
Format : UTF-8
Codec ID : S_TEXT/UTF8
Codec ID/Info : UTF-8 Plain Text
Duration : 1 h 25 min
Bit rate : 59 b/s
Count of elements : 1152
Stream size : 37.0 KiB (0Loco
Title : Japanese [Full]
Language : Japanese
Default : No
Forced : No
11 Oct 2018, 23:34
Mensaje: #2

RE: The Guardian Brothers

Gracias Haru por existir
12 Oct 2018, 12:36
Mensaje: #3

RE: The Guardian Brothers

Complete name : D:\Haru el baneado\[Magilou] The Guardian Brothers [NF WEB-DL 1080p] [Multi-Audio-Multi-Subs] [E83F9BB3].mkv



Usuario(s) navegando en este tema: 1 invitado(s)