¡Hola, Invitado! (Iniciar sesiónRegístrate)
Hora: 20 Jun 2019, 05:08

La Ballena Blanca

30 Oct 2018, 17:52 (Este mensaje fue modificado por última vez en: 31 Jan 2019 13:38 por Tret)
Mensaje: #1

La Ballena Blanca

Completo La Ballena Blanca

Título original: Tobe! Kujira no Peek
Fansub: Archah
Público: Kodomo
Ambientación: Presente
Género: Drama
1
Duración: 80 min.
1991
Video: 720x480 H.264
Contenedor: MKVSoftsubs
Audio:
Servidor:
Solo los usuarios registrados pueden descargar por torrent
Archivos Torrent:[mostrar archivos]
[Archah] La ballena blanca [DVDrip 480p] [0F4E95B7].mkv532,19 MB

Otros Fansubs:TLS
Película basada en la historia original de Hidehito Hara sobre la historia de un chico y su pequeña cruzada para la liberación de una pequeña ballena albina en una pequeña población costera de un país de Europa.



MediaInfo:
Mostrar
[Archah] La ballena blanca [DVDrip 480p] [0F4E95B7].mkv
Format : Matroska
Format version : Version 4 / Version 2
File size : 532 MiB
Duration : 1 h 19 min
Overall bit rate : 934 kb/s
Encoded date : UTC 2018-10-30 15:39:19
Writing application : mkvmerge v25.0.0 ('Prog Noir') 64-bit
Writing library : libebml v1.3.6 + libmatroska v1.4.9
Attachments : Dyno Bold Italic.ttf / Dyno Bold.ttf / Dyno Italic.ttf / Dyno Regular.ttf

Video
ID : 1
Format : AVC
Format/Info : Advanced Video Codec
Format profile : Main@L3
Format settings : CABAC / 3 Ref Frames
Format settings, CABAC : Yes
Format settings, ReFrames : 3 frames
Format settings, GOP : M=1, N=2
Codec ID : V_MPEG4/ISO/AVC
Duration : 1 h 19 min
Bit rate : 615 kb/s
Width : 720 pixels
Height : 480 pixels
Display aspect ratio : 3:2
Frame rate mode : Constant
Frame rate : 23.976 (24000/1001) FPS
Color space : YUV
Chroma subsampling : 4:2:0
Bit depth : 8 bits
Scan type : Progressive
Bits/(Pixel*Frame) : 0.074
Stream size : 350 MiB (66Loco
Default : Yes
Forced : No

Audio #1
ID : 2
Format : AC-3
Format/Info : Audio Coding 3
Codec ID : A_AC3
Duration : 1 h 19 min
Bit rate mode : Constant
Bit rate : 192 kb/s
Channel(s) : 2 channels
Channel positions : Front: L R
Sampling rate : 44.1 kHz
Frame rate : 28.711 FPS (1536 SPF)
Bit depth : 16 bits
Compression mode : Lossy
Stream size : 109 MiB (20Loco
Language : Spanish
Service kind : Complete Main
Default : Yes
Forced : No

Audio #2
ID : 3
Format : AAC
Format/Info : Advanced Audio Codec
Format profile : LC
Codec ID : A_AAC-2
Duration : 1 h 19 min
Bit rate : 126 kb/s
Channel(s) : 2 channels
Channel positions : Front: L R
Sampling rate : 44.1 kHz
Frame rate : 43.066 FPS (1024 SPF)
Compression mode : Lossy
Stream size : 71.6 MiB (13Loco
Language : Japanese
Default : No
Forced : No

Text
ID : 4
Format : ASS
Codec ID : S_TEXT/ASS
Codec ID/Info : Advanced Sub Station Alpha
Duration : 1 h 19 min
Bit rate : 77 b/s
Count of elements : 810
Compression mode : Lossless
Stream size : 45.1 KiB (0Loco
Language : Spanish
Default : No
Forced : No

Advertencia: Para poder disfrutar de la película correctamente hay que cambiar la relación de aspecto del vídeo a 4:3 con el reproductor.
31 Oct 2018, 01:03
Mensaje: #2

RE: La Ballena Blanca

Voy a renovar por esta versión en japones subtitulada.
Muchas Gracias.
06 Nov 2018, 21:59
Mensaje: #3

RE: La Ballena Blanca

A ti por comentar =)
23 Feb 2019, 01:25
Mensaje: #4

RE: La Ballena Blanca

Gracias



Usuario(s) navegando en este tema: 1 invitado(s)