¡Hola, Invitado! (Iniciar sesiónRegístrate)
Hora: 25 Mar 2019, 19:49

 
Calificación:
  • 0 votos - 0 Media
  • 1
  • 2
  • 3
  • 4
  • 5

Black Jack

25 Nov 2018, 05:39
Mensaje: #11

RE: Black Jack

Gracias crack!! Ahora es muy tarde pero mañana te creo el torrent!!
12 Dec 2018, 01:47
Mensaje: #12

RE: Black Jack

Siempre se agradece algo de Black Jack y más con esta calidad, ¡muchísimas gracias por el aporte! Amor
12 Dec 2018, 09:06
Mensaje: #13

RE: Black Jack

Se agradece que te hayas tomado la molestia de subir esto al foro, pero por desgracia incumple una de las normas del foro, que es la siguiente: "No se permite subir animes que han sido comprimidos usando --bitrate en vez de --crf si el fansub ha trabajado dicho anime después del año 2013".

MediaInfo:
Mostrar
[Archah] Black Jack OVA - 01 [BDrip 1080p 10Bit] [526EFB51].mkv
Format : Matroska
Format version : Version 4 / Version 2
File size : 2.66 GiB
Duration : 49 min 3 s
Overall bit rate mode : Variable
Overall bit rate : 7 752 kb/s
Encoded date : UTC 2018-10-31 16:07:13
Writing application : mkvmerge v25.0.0 ('Prog Noir') 64-bit
Writing library : libebml v1.3.6 + libmatroska v1.4.9

Video
ID : 1
Format : AVC
Format/Info : Advanced Video Codec
Format profile : High 10@L5
Format settings : CABAC / 5 Ref Frames
Format settings, CABAC : Yes
Format settings, ReFrames : 5 frames
Codec ID : V_MPEG4/ISO/AVC
Duration : 48 min 54 s
Bit rate : 6 500 kb/s
Width : 1 848 pixels
Height : 1 080 pixels
Display aspect ratio : 1.711
Frame rate mode : Constant
Frame rate : 23.976 (24000/1001) FPS
Color space : YUV
Chroma subsampling : 4:2:0
Bit depth : 10 bits
Scan type : Progressive
Bits/(Pixel*Frame) : 0.136
Stream size : 2.22 GiB (84Loco
Writing library : x264 core 148 r2638 7599210
Encoding settings : cabac=1 / ref=5 / deblock=1:1:1 / analyse=0x3:0x113 / me=umh / subme=8 / psy=1 / psy_rd=0.70:0.00 / mixed_ref=1 / me_range=24 / chroma_me=1 / trellis=0 / 8x8dct=1 / cqm=0 / deadzone=21,11 / fast_pskip=0 / chroma_qp_offset=-2 / threads=12 / lookahead_threads=2 / sliced_threads=0 / nr=0 / decimate=1 / interlaced=0 / bluray_compat=0 / constrained_intra=0 / bframes=3 / b_pyramid=2 / b_adapt=2 / b_bias=0 / direct=1 / weightb=1 / open_gop=0 / weightp=2 / keyint=240 / keyint_min=23 / scenecut=40 / intra_refresh=0 / rc_lookahead=40 / rc=2pass / mbtree=1 / bitrate=6500 / ratetol=1.0 / qcomp=0.60 / qpmin=0 / qpmax=81 / qpstep=4 / cplxblur=20.0 / qblur=0.5 / ip_ratio=1.40 / aq=1:1.00
Language : Japanese
Default : No
Forced : No

Audio #1
ID : 2
Format : AC-3
Format/Info : Audio Coding 3
Codec ID : A_AC3
Duration : 48 min 36 s
Bit rate mode : Constant
Bit rate : 448 kb/s
Channel(s) : 6 channels
Channel positions : Front: L C R, Side: L R, LFE
Sampling rate : 48.0 kHz
Frame rate : 31.250 FPS (1536 SPF)
Bit depth : 16 bits
Compression mode : Lossy
Delay relative to video : 17 s 900 ms
Stream size : 156 MiB (6Loco
Title : Español AC3 5.1
Language : Spanish
Service kind : Complete Main
Default : Yes
Forced : No

Audio #2
ID : 3
Format : FLAC
Format/Info : Free Lossless Audio Codec
Codec ID : A_FLAC
Duration : 48 min 55 s
Bit rate mode : Variable
Bit rate : 632 kb/s
Channel(s) : 2 channels
Channel positions : Front: L R
Sampling rate : 48.0 kHz
Frame rate : 11.719 FPS (4096 SPF)
Bit depth : 16 bits
Stream size : 221 MiB (8Loco
Title : Japonés FLAC 2.0
Writing library : libFLAC 1.3.1 (UTC 2014-11-25)
Language : Japanese
Default : No
Forced : No

Audio #3
ID : 4
Format : AC-3
Format/Info : Audio Coding 3
Codec ID : A_AC3
Duration : 49 min 3 s
Bit rate mode : Constant
Bit rate : 192 kb/s
Channel(s) : 2 channels
Channel positions : Front: L R
Sampling rate : 48.0 kHz
Frame rate : 31.250 FPS (1536 SPF)
Bit depth : 16 bits
Compression mode : Lossy
Delay relative to video : 12 ms
Stream size : 67.4 MiB (2Loco
Title : Inglés AC3 2.0
Language : English
Service kind : Complete Main
Default : No
Forced : No

Text #1
ID : 5
Format : UTF-8
Codec ID : S_TEXT/UTF8
Codec ID/Info : UTF-8 Plain Text
Duration : 47 min 59 s
Bit rate : 57 b/s
Count of elements : 508
Stream size : 20.1 KiB (0Loco
Title : Español
Language : Spanish
Default : No
Forced : No

Text #2
ID : 6
Format : UTF-8
Codec ID : S_TEXT/UTF8
Codec ID/Info : UTF-8 Plain Text
Duration : 47 min 59 s
Bit rate : 53 b/s
Count of elements : 508
Stream size : 18.7 KiB (0Loco
Title : Latino
Language : Spanish
Default : No
Forced : No

Text #3
ID : 7
Format : UTF-8
Codec ID : S_TEXT/UTF8
Codec ID/Info : UTF-8 Plain Text
Duration : 48 min 0 s
Bit rate : 61 b/s
Count of elements : 528
Stream size : 21.7 KiB (0Loco
Title : Inglés
Language : English
Default : No
Forced : No

Muevo el tema a la papelera.


Usuario(s) navegando en este tema: 1 invitado(s)