¡Hola, Invitado! (Iniciar sesiónRegístrate)
Hora: 16 Oct 2019, 14:45

 
Calificación:
  • 0 votos - 0 Media
  • 1
  • 2
  • 3
  • 4
  • 5

Minami-ke Natsuyasumi

25 Nov 2018, 13:21
Mensaje: #1

Minami-ke Natsuyasumi

Segundo OVA incluido con el volumen 11 del manga.
Chiaki, Kana y Haruka deciden cómo pasar sus últimos días de verano juntas.


27 Nov 2018, 09:10
Mensaje: #2

RE: Minami-ke Natsuyasumi

Muevo el tema a la papelera por incumplir la siguiente norma: "No se permiten upscales, excepto si el upscale es para hacer el PAR 1:1, si el fansub ha trabajado dicho anime después del año 2013".

MediaInfo:
Mostrar
[AU] Minami-ke Natuyasumi [DVD][AD35F941].mkv
Format : Matroska
Format version : Version 4 / Version 2
File size : 245 MiB
Duration : 27 min 59 s
Overall bit rate : 1 223 kb/s
Movie name : [AU] Minami-ke Natuyasumi
Encoded date : UTC 2018-03-14 14:23:41
Writing application : mkvmerge v21.0.0 ('Tardigrades Will Inherit The Earth') 64-bit
Writing library : libebml v1.3.5 + libmatroska v1.4.8
Attachments : badankadonk.ttf / BRLNSR.TTF / Cavalier.ttf / ITCKRIST.TTF / Java Jive Regular.ttf / VeronicasHand Regular.ttf / FOTGakuMaruGothicProStrp-M.otf

Video
ID : 1
Format : AVC
Format/Info : Advanced Video Codec
Format profile : High 10@L5
Format settings : CABAC / 16 Ref Frames
Format settings, CABAC : Yes
Format settings, ReFrames : 16 frames
Codec ID : V_MPEG4/ISO/AVC
Duration : 27 min 59 s
Bit rate : 770 kb/s
Width : 1 024 pixels
Height : 576 pixels
Display aspect ratio : 16:9
Frame rate mode : Constant
Frame rate : 23.976 (24000/1001) FPS
Color space : YUV
Chroma subsampling : 4:2:0
Bit depth : 10 bits
Scan type : Progressive
Bits/(Pixel*Frame) : 0.054
Stream size : 154 MiB (63Loco
Title : h264
Writing library : x264 core 148 r2762+56 6284cf3 t_mod_Custom [10-bit@All X86_64]
Encoding settings : cabac=1 / ref=16 / deblock=1:1:1 / analyse=0x3:0x133 / me=umh / subme=11 / psy=1 / fade_compensate=0.90 / psy_rd=0.80:0.05 / mixed_ref=1 / me_range=24 / chroma_me=1 / trellis=2 / 8x8dct=1 / cqm=0 / deadzone=21,11 / fast_pskip=0 / chroma_qp_offset=-3 / threads=6 / lookahead_threads=1 / sliced_threads=0 / nr=0 / decimate=0 / interlaced=0 / bluray_compat=0 / constrained_intra=0 / fgo=0 / bframes=16 / b_pyramid=2 / b_adapt=2 / b_bias=0 / direct=3 / weightb=1 / open_gop=0 / weightp=2 / keyint=250 / keyint_min=23 / scenecut=40 / intra_refresh=0 / rc_lookahead=60 / rc=crf / mbtree=1 / crf=15.0000 / qcomp=0.75 / qpmin=0:0:0 / qpmax=81:81:81 / qpstep=4 / ip_ratio=1.40 / aq=3:0.80 / aq-sensitivity=10.00 / aq-factor=1.00:1.00:1.00 / aq2=0 / aq3=0
Default : Yes
Forced : No
Color range : Limited
Matrix coefficients : BT.470 System B, BT.470 System G

Audio
ID : 2
Format : AC-3
Format/Info : Audio Coding 3
Codec ID : A_AC3
Duration : 27 min 59 s
Bit rate mode : Constant
Bit rate : 448 kb/s
Channel(s) : 2 channels
Channel positions : Front: L R
Sampling rate : 48.0 kHz
Frame rate : 31.250 FPS (1536 SPF)
Bit depth : 16 bits
Compression mode : Lossy
Stream size : 89.7 MiB (37Loco
Title : AC3
Language : Japanese
Service kind : Complete Main
Default : Yes
Forced : No

Text
ID : 3
Format : ASS
Codec ID : S_TEXT/ASS
Codec ID/Info : Advanced Sub Station Alpha
Duration : 27 min 28 s
Bit rate : 223 b/s
Count of elements : 578
Compression mode : Lossless
Stream size : 45.0 KiB (0Loco
Title : ASS
Language : Spanish
Default : Yes
Forced : No

Menu
00:00:00.000 : es:Intro
00:00:34.034 : es:Episodio
00:22:08.118 : es:Ending
00:23:58.020 : es:Avance


Usuario(s) navegando en este tema: 1 invitado(s)