¡Hola, Invitado! (Iniciar sesiónRegístrate)
Hora: 15 Oct 2019, 14:05

 
Calificación:
  • 0 votos - 0 Media
  • 1
  • 2
  • 3
  • 4
  • 5

El caso de Hana y Alice

28 Nov 2018, 17:39
Mensaje: #1

El caso de Hana y Alice

Tras la separación de sus padres, Alice se muda con su madre a un nuevo pueblo donde tendrá que empezar de cero en el colegio. Al serle asignado el asiento de un antiguo alumno llamado "Yuda", del que se dice fue asesinado el año anterior, los demás alumnos empiezan a meterse con ella y ningunearla. Para descubrir el misterio detrás de la desaparición de "Yuda" tendrá que preguntar a la única persona que sabe qué le ocurrió: una chica que vive encerrada en su casa, cuyo nombre es Hana.



29 Nov 2018, 08:47
Mensaje: #2

RE: El caso de Hana y Alice

Interesante el modo de dibujo.
29 Nov 2018, 10:38
Mensaje: #3

RE: El caso de Hana y Alice

Lo dibujé yo.

Bajando-
30 Nov 2018, 15:16
Mensaje: #4

RE: El caso de Hana y Alice

¡Gracias!
13 Dec 2018, 17:13
Mensaje: #5

RE: El caso de Hana y Alice

Se agradece que te hayas tomado la molestia de subir esto al foro, pero por desgracia incumple una de las normas del foro, que es la siguiente: "No se permite subir animes que han sido comprimidos usando --bitrate en vez de --crf si el fansub ha trabajado dicho anime después del año 2013".

MediaInfo:
Mostrar
[yamil] El caso de Hana y Alice [BDrip 1080p] [2C819632].mkv
Format : Matroska
Format version : Version 4 / Version 2
File size : 6.85 GiB
Duration : 1 h 38 min
Overall bit rate : 9 930 kb/s
Encoded date : UTC 2018-10-27 18:03:49
Writing application : mkvmerge v25.0.0 ('Prog Noir') 64-bit
Writing library : libebml v1.3.6 + libmatroska v1.4.9

Video
ID : 1
Format : AVC
Format/Info : Advanced Video Codec
Format profile : High@L4.1
Format settings : CABAC / 4 Ref Frames
Format settings, CABAC : Yes
Format settings, ReFrames : 4 frames
Codec ID : V_MPEG4/ISO/AVC
Duration : 1 h 38 min
Bit rate : 8 866 kb/s
Width : 1 920 pixels
Height : 1 080 pixels
Display aspect ratio : 16:9
Frame rate mode : Constant
Frame rate : 23.976 (24000/1001) FPS
Color space : YUV
Chroma subsampling : 4:2:0
Bit depth : 8 bits
Scan type : Progressive
Bits/(Pixel*Frame) : 0.178
Stream size : 6.10 GiB (89Loco
Writing library : x264 core 129 r2245+704+36 8e61944 tMod+MixAQ [8-bit@4:2:0 X86_64]
Encoding settings : cabac=1 / ref=4 / deblock=1:-1:-1 / analyse=0x3:0x133 / me=umh / subme=11 / psy=1 / fade_compensate=0.00 / psy_rd=0.60:0.00 / mixed_ref=1 / me_range=64 / chroma_me=1 / trellis=2 / 8x8dct=1 / cqm=0 / deadzone=21,11 / fast_pskip=0 / chroma_qp_offset=-2 / threads=18 / lookahead_threads=3 / sliced_threads=0 / nr=0 / decimate=0 / interlaced=0 / bluray_compat=0 / constrained_intra=0 / fgo=0 / bframes=10 / b_pyramid=2 / b_adapt=2 / b_bias=0 / direct=3 / weightb=1 / open_gop=0 / weightp=2 / keyint=250 / keyint_min=23 / scenecut=40 / intra_refresh=0 / rc=2pass / mbtree=0 / bitrate=8866 / ratetol=1.0 / qcomp=0.70 / qpmin=0 / qpmax=69 / qpstep=4 / cplxblur=20.0 / qblur=0.5 / ip_ratio=1.40 / pb_ratio=1.30 / aq=1 / aq-strength=0.95 / aq-sensitivity=10.00 / aq-ifactor=1.00 / aq-pfactor=1.00 / aq-bfactor=1.00 / aq2=0
Language : Spanish
Default : Yes
Forced : No

Audio #1
ID : 2
Format : AC-3
Format/Info : Audio Coding 3
Codec ID : A_AC3
Duration : 1 h 38 min
Bit rate mode : Constant
Bit rate : 448 kb/s
Channel(s) : 6 channels
Channel positions : Front: L C R, Side: L R, LFE
Sampling rate : 48.0 kHz
Frame rate : 31.250 FPS (1536 SPF)
Bit depth : 16 bits
Compression mode : Lossy
Stream size : 316 MiB (5Loco
Language : Spanish
Service kind : Complete Main
Default : Yes
Forced : No

Audio #2
ID : 3
Format : AC-3
Format/Info : Audio Coding 3
Codec ID : A_AC3
Duration : 1 h 38 min
Bit rate mode : Constant
Bit rate : 640 kb/s
Channel(s) : 6 channels
Channel positions : Front: L C R, Side: L R, LFE
Sampling rate : 48.0 kHz
Frame rate : 31.250 FPS (1536 SPF)
Bit depth : 16 bits
Compression mode : Lossy
Stream size : 452 MiB (6Loco
Language : Japanese
Service kind : Complete Main
Default : No
Forced : No

Text #1
ID : 4
Format : UTF-8
Codec ID : S_TEXT/UTF8
Codec ID/Info : UTF-8 Plain Text
Duration : 1 h 37 min
Bit rate : 50 b/s
Count of elements : 1459
Stream size : 36.1 KiB (0Loco
Language : Spanish
Default : No
Forced : No

Text #2
ID : 5
Format : UTF-8
Codec ID : S_TEXT/UTF8
Codec ID/Info : UTF-8 Plain Text
Duration : 1 h 31 min
Bit rate : 49 b/s
Count of elements : 1282
Stream size : 33.1 KiB (0Loco
Language : English
Default : No
Forced : No

Menu
00:00:00.000 : en:00:00:00.000
00:09:15.304 : en:00:09:15.304
00:15:51.909 : en:00:15:51.909
00:21:49.099 : en:00:21:49.099
00:26:29.045 : en:00:26:29.045
00:30:59.482 : en:00:30:59.482
00:35:43.015 : en:00:35:43.015
00:40:21.085 : en:00:40:21.085
00:47:24.174 : en:00:47:24.174
00:53:18.278 : en:00:53:18.278
00:59:22.100 : en:00:59:22.100
01:07:38.095 : en:01:07:38.095
01:13:57.975 : en:01:13:57.975
01:25:28.539 : en:01:25:28.539
01:32:28.501 : en:01:32:28.501
01:34:09.059 : en:01:34:09.059

Muevo el tema a la papelera.


Usuario(s) navegando en este tema: 1 invitado(s)