¡Hola, Invitado! (Iniciar sesiónRegístrate)
Hora: 20 Jul 2019, 13:39

Akira

21 Dec 2018, 14:43 (Este mensaje fue modificado por última vez en: 24 Dec 2018 16:50 por Tret)
Mensaje: #1

Akira

Completo Akira

Público: Seinen
Ambientación: Ciencia Ficción
Género: Acción
Audios adicionales: Valenciano, castellano (ambos doblajes)
1
Duración: 2 h 4 min
1988
Video: 1920x1080 H.264
Contenedor: MKVSoftsubs
Audio:
Servidor:
Solo los usuarios registrados pueden descargar por torrent
Archivos Torrent:[mostrar archivos]
Akira (1988) (Ed. ITA 30 Aniversario) [BDRemux 1080p AVC Multiaudio DTS-HD MA 5.1 FLAC 2.0 Subs].mkv47,43 GB

Manga: Akira

En el año 2019, en Tokio, Kaneda, líder de una banda de delincuentes juveniles, conduce su moto compitiendo contra bandas rivales a través de una ciudad devastada.

Una noche, su amigo Tetsuo resulta malherido tras chocar de frente con un extraño muchacho producto de la experimentación humana, y poco después los militares entran en escena llevándose a Tetsuo con ellos.

Dispuesto a liberar a su amigo, Kaneda se infiltra en las instalaciones de investigación militar donde ha sido recluido. Pero para entonces un nuevo poder ya ha despertado en Tetsuo, que comienza a ser consumido por la locura.

Mientras tanto, uno de los sujetos experimentales del laboratorio anuncia el despertar del mayor de los secretos... el advenimiento de Akira.


MediaInfo:
Mostrar
Video: MPEG4 Video (H264) 1920x1080 23.976fps [V: Japanese [jpn] (h264 high L4.1, yuv420p, 1920x1080) [default]]
Audio: DTS 96000Hz 6ch 9216kbps [A: Castellano DTS-HD Master Audio 5.1 @ 2510 kbps (Redoblaje 2004) [spa] (dts-hd ma, 96000 Hz, 5.1, s16) [default]]
Audio: FLAC (framed) 48000Hz stereo 1536kbps [A: Castellano FLAC 2.0 @ 398 kbps (Doblaje Original 1992) [spa] (flac, 48000 Hz, stereo, s16)]
Audio: FLAC (framed) 48000Hz stereo 1536kbps [A: Català FLAC 2.0 @ 680 kbps [cat] (flac, 48000 Hz, stereo, s16)]
Audio: FLAC (framed) 48000Hz stereo 1536kbps [A: Valencià FLAC 2.0 @ 628 kbps [cat] (flac, 48000 Hz, stereo, s16)]
Audio: DTS 192000Hz 6ch 27648kbps [A: Japonés DTS-HD Master Audio 5.1 @ 14900 kbps [jpn] (dts-hd ma, 192000 Hz, 5.1, s24)]
Subtitle: UTF-8 [S: Castellano Completos Planos [spa] (subrip)]
Subtitle [S: Castellano Completos PGS [spa] (pgs)]
Subtitle [S: Forced Subtitles (auto)]
Subtitle: UTF-8 [S: No subtitles]

General
Unique ID : 305705183046636459825525744261097111184 (0xE5FCAD36DCE032AD4579A0B6BB88BE90)
Complete name : D:\Akira (1988) (Ed. ITA 30 Aniversario) [BDRemux 1080p AVC Multiaudio DTS-HD MA 5.1 FLAC 2.0 Subs].mkv
Format : Matroska
Format version : Version 4 / Version 2
File size : 47.4 GiB
Duration : 2 h 4 min
Overall bit rate mode : Variable
Overall bit rate : 54.5 Mbps
Movie name : Akira (1988)
Encoded date : UTC 2018-11-09 17:46:49
Writing application : mkvmerge v27.0.0 ('Metropolis') 64-bit
Writing library : libebml v1.3.6 + libmatroska v1.4.9

Video
ID : 1
Format : AVC
Format/Info : Advanced Video Codec
Format profile : High@L4.1
Format settings, CABAC : Yes
Format settings, ReFrames : 4 frames
Codec ID : V_MPEG4/ISO/AVC
Duration : 2 h 4 min
Bit rate mode : Variable
Bit rate : 35.4 Mbps
Maximum bit rate : 37.0 Mbps
Width : 1 920 pixels
Height : 1 080 pixels
Display aspect ratio : 16:9
Frame rate mode : Constant
Frame rate : 23.976 (24000/1001) fps
Color space : YUV
Chroma subsampling : 4:2:0
Bit depth : 8 bits
Scan type : Progressive
Bits/(Pixel*Frame) : 0.712
Stream size : 30.8 GiB (65%)
Language : Japanese
Default : Yes
Forced : No

Audio #1
ID : 2
Format : DTS
Format/Info : Digital Theater Systems
Format profile : MA / Core
Mode : 16
Format settings, Endianness : Big
Codec ID : A_DTS
Duration : 2 h 4 min
Bit rate mode : Variable / Constant
Bit rate : 2 508 Kbps / 768 Kbps
Channel(s) : 6 channels
Channel positions : Front: L C R, Side: L R, LFE
Sampling rate : 96.0 KHz / 48.0 KHz
Frame rate : 93.750 fps (512 spf)
Bit depth : 16 bits
Compression mode : Lossless / Lossy
Stream size : 2.18 GiB (5%)
Title : Castellano DTS-HD Master Audio 5.1 @ 2510 kbps (Redoblaje 2004)
Language : Spanish
Default : Yes
Forced : No

Audio #2
ID : 3
Format : FLAC
Format/Info : Free Lossless Audio Codec
Codec ID : A_FLAC
Duration : 2 h 4 min
Bit rate mode : Variable
Bit rate : 398 Kbps
Channel(s) : 2 channels
Channel positions : Front: L R
Sampling rate : 48.0 KHz
Frame rate : 11.719 fps (4096 spf)
Bit depth : 16 bits
Stream size : 354 MiB (1%)
Title : Castellano FLAC 2.0 @ 398 kbps (Doblaje Original 1992)
Writing library : libFLAC 1.3.2 (UTC 2017-01-01)
Language : Spanish
Default : No
Forced : No

Audio #3
ID : 4
Format : FLAC
Format/Info : Free Lossless Audio Codec
Codec ID : A_FLAC
Duration : 2 h 4 min
Bit rate mode : Variable
Bit rate : 680 Kbps
Channel(s) : 2 channels
Channel positions : Front: L R
Sampling rate : 48.0 KHz
Frame rate : 11.719 fps (4096 spf)
Bit depth : 16 bits
Stream size : 605 MiB (1%)
Title : Català FLAC 2.0 @ 680 kbps
Writing library : libFLAC 1.3.2 (UTC 2017-01-01)
Language : Catalan
Default : No
Forced : No

Audio #4
ID : 5
Format : FLAC
Format/Info : Free Lossless Audio Codec
Codec ID : A_FLAC
Duration : 2 h 4 min
Bit rate mode : Variable
Bit rate : 628 Kbps
Channel(s) : 2 channels
Channel positions : Front: L R
Sampling rate : 48.0 KHz
Frame rate : 11.719 fps (4096 spf)
Bit depth : 16 bits
Stream size : 559 MiB (1%)
Title : Valencià FLAC 2.0 @ 628 kbps
Writing library : libFLAC 1.3.2 (UTC 2017-01-01)
Language : Catalan
Default : No
Forced : No

Audio #5
ID : 6
Format : DTS
Format/Info : Digital Theater Systems
Format profile : MA / Core
Mode : 16
Format settings, Endianness : Big
Codec ID : A_DTS
Duration : 2 h 4 min
Bit rate mode : Variable / Constant
Bit rate : 14.9 Mbps / 1 509 Kbps
Channel(s) : 6 channels
Channel positions : Front: L C R, Side: L R, LFE
Sampling rate : 192 KHz / 48.0 KHz
Frame rate : 93.750 fps (512 spf)
Bit depth : 24 bits
Compression mode : Lossless / Lossy
Stream size : 13.0 GiB (27%)
Title : Japonés DTS-HD Master Audio 5.1 @ 14900 kbps
Language : Japanese
Default : No
Forced : No

Text #1
ID : 7
Format : UTF-8
Codec ID : S_TEXT/UTF8
Codec ID/Info : UTF-8 Plain Text
Duration : 2 h 0 min
Bit rate : 42 bps
Count of elements : 1064
Stream size : 37.3 KiB (0%)
Title : Castellano Completos Planos
Language : Spanish
Default : No
Forced : No

Text #2
ID : 8
Format : PGS
Muxing mode : zlib
Codec ID : S_HDMV/PGS
Codec ID/Info : Picture based subtitle format used on BDs/HD-DVDs
Duration : 2 h 0 min
Bit rate : 28.9 Kbps
Count of elements : 2128
Stream size : 24.9 MiB (0%)
Title : Castellano Completos PGS
Language : Spanish
Default : No
Forced : No

Menu
00:00:00.000 : :Neo Tokyo 2019
00:03:04.309 : :Callejón
00:05:25.283 : :Joker
00:06:58.668 : :Número 26: Takashi
00:10:33.507 : :Persecución
00:12:11.730 : :Tetsuo contra Clown
00:16:53.887 : :Interrogatorio
00:20:37.444 : :Oficina del Coronel
00:23:45.340 : :Escuela vocacional
00:26:44.686 : :Venganza de los Clown
00:29:10.081 : :Ilusión
00:32:10.511 : :Bombardeo terrorista
00:35:21.577 : :La memoria de Tetsuo
00:38:14.250 : :Sala de control
00:41:23.147 : :Escondite terrorista
00:45:05.703 : :Ejecutivos supremos
00:47:40.107 : :Invasión
00:53:16.484 : :Batalla en la alcantarilla
00:57:16.850 : :A la habitación de los niños
01:02:32.206 : :Localizando a Tetsuo
01:05:30.176 : :El vuelo de Tetsuo
01:08:36.403 : :Haruki-ya
01:11:11.058 : :En prisión
01:14:30.466 : :Listos para la batalla
01:18:12.270 : :La mansión de Nezu
01:21:31.428 : :Fallecimiento de Nezu
01:25:57.485 : :Estadio Olímpico
01:30:47.358 : :Cápsula congelada
01:36:05.509 : :SOL
01:39:38.806 : :Ruptura momentánea
01:41:54.900 : :Enfrentamiento en el Estadio
01:45:42.335 : :La mutación de Tetsuo
01:49:21.680 : :Akira, resucitado
01:52:23.695 : :Recuerdos
01:56:06.959 : :Destrucción
01:58:25.014 : :El regreso de Kaneda

Vídeo procedente de la edición 30 aniversario italiana.
21 Dec 2018, 17:33
Mensaje: #2

RE: Akira

¿Este si tiene el audio hipersónico?
21 Dec 2018, 22:04
Mensaje: #3

RE: Akira

(21 Dec 2018 17:33)PortgasDJosh escribió:  ¿Este si tiene el audio hipersónico?

Sí, el japo
22 Dec 2018, 13:04
Mensaje: #4

RE: Akira

192Hkz *-* lástima que no tengo el equipo para ello.
26 Dec 2018, 13:28 (Este mensaje fue modificado por última vez en: 26 Dec 2018 13:29 por jose94)
Mensaje: #5

RE: Akira

Sigo esperando su disponibilidad

PD: si lo has sacado de otra página pásame el link y la pongo a seedear en cuanto me lo descargue
28 Dec 2018, 02:59
Mensaje: #6

RE: Akira

Esperad sentados, estoy de vacaciones.
05 Jan 2019, 23:29
Mensaje: #7

RE: Akira

Alguien lo puede subir en MEGA por favor?
05 Jan 2019, 23:31
Mensaje: #8

RE: Akira

(05 Jan 2019 23:29)Tenebrozo Gamer escribió:  Alguien lo puede subir en MEGA por favor?

>No está permitido pedir una resubida cuando está disponible por torrent.
15 Jan 2019, 01:51
Mensaje: #9

RE: Akira

hola.queria saber si se esta compartiendo.gracias
15 Jan 2019, 07:46
Mensaje: #10

RE: Akira

Se agradece la tremenda versión!
La historia se desarrolla en un futuro 2019, ideal para verla de nuevo.



Usuario(s) navegando en este tema: 1 invitado(s)