¡Hola, Invitado! (Iniciar sesiónRegístrate)
Hora: 28 Feb 2020, 10:25
¿Sabías que haciendo una donación única o suscribiéndote en Patreon puedes hacerte VIP para navegar sin publicidad y obtener acceso al tracker privado con DVDs/BDs?

Dragon Ball Z - Película 3: Superbatalla decisiva por la Tierra

24 Aug 2019, 21:03 (Este mensaje fue modificado por última vez en: 18 Sep 2019 23:03 por Slek)
Mensaje: #1

Dragon Ball Z - Película 3: Superbatalla decisiva por la Tierra

Completo Dragon Ball Z - Película 3: Superbatalla decisiva por la Tierra

Título original: Dragon Ball Z Movie 03: Chikyuu Marugoto Choukessen
Fansub: EvoShare
Público: Shonen
Ambientación: Fantasía
Género: Acción
1
Duración: 61 min
1990
Video: 720x480 (DAR 4:3 - 16:9) H.264
Contenedor: MKVSoftsubs
Audio:
Servidor:
Solo los usuarios registrados pueden descargar por torrent
Archivos Torrent:[mostrar archivos]
[EvoShare] Dragon Ball Z Movie 03 - Avance - Súper Batalla Decisiva por la Tierra [DVD+DVD] [DUAL+SUBS] by overdrive [55E4D5C9].mkv20,86 MB
[EvoShare] Dragon Ball Z Movie 03 - Ending Sin Créditos - Súper Batalla Decisiva por la Tierra [DVD+DVD] [DUAL+SUBS] by overdrive [B53A1153].mkv20,75 MB
[EvoShare] Dragon Ball Z Movie 03 - Opening Sin Créditos - Súper Batalla Decisiva por la Tierra [DVD+DVD] [DUAL+SUBS] by overdrive [C17B060C].mkv24,37 MB
[EvoShare] Dragon Ball Z Movie 03 - Súper Batalla Decisiva por la Tierra [DVD+DVD] [DUAL+SUBS] by overdrive [60BB2A02].mkv2,38 GB

Otros Fansubs:poxitron EvoShare
Tarles, un saiya superviviente del planeta Vegeta llega a la Tierra para verificar si Kakarot ha cumplido con su trabajo. Al ver el buen estado del planeta, planta un gigantesco Árbol de la Vida para que absorba toda su energía y lo convierta en un árido desierto. Goku intenta destruir el árbol, pero es asaltado por los piratas espaciales y Gohan es capturado. Lo único que separa a la Tierra de la destrucción es la nueva técnica de Goku conocida como Genkidama.



MediaInfo:
Mostrar
General
Unique ID : 217632006707810558743620140762423971095 (0xA3BA665D10BF5DA5A5BCF04495014D17)
Complete name : [EvoShare] Dragon Ball Z Movie 03 - Súper Batalla Decisiva por la Tierra [DVD+DVD] [DUAL+SUBS] by overdrive [60BB2A02].mkv
Format : Matroska
Format version : Version 4 / Version 2
File size : 2.38 GiB
Duration : 58 min 23 s
Overall bit rate : 5 830 kb/s
Movie name : Bola de Dragon Z
Description : Película 03: Súper Batalla Decisiva por la Tierra
Encoded date : UTC 2016-03-28 19:16:22
Writing application : mkvmerge v9.0.0 ('Power to progress') 64bit
Writing library : libebml v1.3.3 + libmatroska v1.4.4
Copyright : Evoshare © 2014
Cover : Yes
Attachments : cover.jpg / small_cover.jpg / cover_land.jpg / small_cover_land.jpg / 01 Kristen.ttf / 02 Jester.ttf / 03 Fennario.ttf / 04 Fennario negrita.ttf / 05 Chinacat.ttf / 06 Chinacat negrita.ttf / 07 Fawn.ttf / 08 HoboStd.otf / 09 Lucida Sans.ttf / 10 Klepon Scone.ttf / 11 Santana.ttf / 12 Girls Have Many Secrets.ttf / 13 angelina.TTF / 14 andrewsc.ttf / Pelicula 03.rar
ARTIST : Overdrive

Video #1
ID : 1
Format : AVC
Format/Info : Advanced Video Codec
Format profile : High@L4.1
Format settings : CABAC / 16 Ref Frames
Format settings, CABAC : Yes
Format settings, ReFrames : 16 frames
Codec ID : V_MPEG4/ISO/AVC
Duration : 58 min 23 s
Bit rate : 2 499 kb/s
Width : 720 pixels
Height : 480 pixels
Display aspect ratio : 4:3
Frame rate mode : Constant
Frame rate : 25.000 FPS
Original frame rate : 23.976 (24000/1001) FPS
Color space : YUV
Chroma subsampling : 4:2:0
Bit depth : 8 bits
Scan type : Progressive
Bits/(Pixel*Frame) : 0.289
Stream size : 1.02 GiB (43Loco
Title : [EvoShare] Dragon Ball Movie 3 [USA]
Writing library : x264 core 142 r2389 956c8d8
Encoding settings : cabac=1 / ref=16 / deblock=1:0:0 / analyse=0x3:0x133 / me=umh / subme=10 / psy=1 / psy_rd=1.00:0.00 / mixed_ref=1 / me_range=24 / chroma_me=1 / trellis=2 / 8x8dct=1 / cqm=0 / deadzone=21,11 / fast_pskip=1 / chroma_qp_offset=-2 / threads=12 / lookahead_threads=1 / sliced_threads=0 / nr=0 / decimate=1 / interlaced=0 / bluray_compat=0 / constrained_intra=0 / bframes=3 / b_pyramid=2 / b_adapt=2 / b_bias=0 / direct=3 / weightb=1 / open_gop=0 / weightp=2 / keyint=240 / keyint_min=23 / scenecut=40 / intra_refresh=0 / rc_lookahead=60 / rc=crf / mbtree=1 / crf=14.0 / qcomp=0.60 / qpmin=0 / qpmax=69 / qpstep=4 / vbv_maxrate=62500 / vbv_bufsize=78125 / crf_max=20.0 / nal_hrd=none / filler=0 / ip_ratio=1.40 / aq=1:1.00
Language : English
Default : Yes
Forced : Yes

Video #2
ID : 2
Format : AVC
Format/Info : Advanced Video Codec
Format profile : High@L4.1
Format settings : CABAC / 16 Ref Frames
Format settings, CABAC : Yes
Format settings, ReFrames : 16 frames
Codec ID : V_MPEG4/ISO/AVC
Duration : 58 min 23 s
Bit rate : 2 800 kb/s
Width : 720 pixels
Height : 480 pixels
Display aspect ratio : 1.85:1
Original display aspect ratio : 16:9
Frame rate mode : Constant
Frame rate : 25.000 FPS
Color space : YUV
Chroma subsampling : 4:2:0
Bit depth : 8 bits
Scan type : Progressive
Bits/(Pixel*Frame) : 0.324
Stream size : 1.14 GiB (48Loco
Title : [EvoShare] Dragon Ball Movie 3 [BOX]
Writing library : x264 core 142 r2389 956c8d8
Encoding settings : cabac=1 / ref=16 / deblock=1:0:0 / analyse=0x3:0x133 / me=umh / subme=10 / psy=1 / psy_rd=1.00:0.00 / mixed_ref=1 / me_range=24 / chroma_me=1 / trellis=2 / 8x8dct=1 / cqm=0 / deadzone=21,11 / fast_pskip=1 / chroma_qp_offset=-2 / threads=12 / lookahead_threads=1 / sliced_threads=0 / nr=0 / decimate=1 / interlaced=0 / bluray_compat=0 / constrained_intra=0 / bframes=3 / b_pyramid=2 / b_adapt=2 / b_bias=0 / direct=3 / weightb=1 / open_gop=0 / weightp=2 / keyint=240 / keyint_min=23 / scenecut=40 / intra_refresh=0 / rc_lookahead=60 / rc=crf / mbtree=1 / crf=14.0 / qcomp=0.60 / qpmin=0 / qpmax=69 / qpstep=4 / vbv_maxrate=62500 / vbv_bufsize=78125 / crf_max=20.0 / nal_hrd=none / filler=0 / ip_ratio=1.40 / aq=1:1.00
Language : Japanese
Default : No
Forced : No

Audio #1
ID : 3
Format : AC-3
Format/Info : Audio Coding 3
Codec ID : A_AC3
Duration : 58 min 23 s
Bit rate mode : Constant
Bit rate : 256 kb/s
Channel(s) : 2 channels
Channel positions : Front: L R
Sampling rate : 48.0 kHz
Frame rate : 31.250 FPS (1536 SPF)
Bit depth : 16 bits
Compression mode : Lossy
Stream size : 107 MiB (4Loco
Title : Español 2.0 [DVD]
Language : Spanish
Service kind : Complete Main
Default : Yes
Forced : Yes

Audio #2
ID : 4
Format : AC-3
Format/Info : Audio Coding 3
Codec ID : A_AC3
Duration : 58 min 23 s
Bit rate mode : Constant
Bit rate : 256 kb/s
Channel(s) : 2 channels
Channel positions : Front: L R
Sampling rate : 48.0 kHz
Frame rate : 31.250 FPS (1536 SPF)
Bit depth : 16 bits
Compression mode : Lossy
Stream size : 107 MiB (4Loco
Title : Japones 2.0 [DVD]
Language : Japanese
Service kind : Complete Main
Default : No
Forced : No

Text #1
ID : 5
Format : ASS
Codec ID : S_TEXT/ASS
Codec ID/Info : Advanced Sub Station Alpha
Duration : 51 min 10 s
Bit rate : 772 b/s
Count of elements : 1421
Compression mode : Lossless
Stream size : 290 KiB (0Loco
Title : Español Forzado [USA]
Language : Spanish
Default : Yes
Forced : Yes

Text #2
ID : 6
Format : ASS
Codec ID : S_TEXT/ASS
Codec ID/Info : Advanced Sub Station Alpha
Duration : 57 min 31 s
Bit rate : 861 b/s
Count of elements : 1845
Compression mode : Lossless
Stream size : 363 KiB (0Loco
Title : Español [USA]
Language : Spanish
Default : No
Forced : No

Text #3
ID : 7
Format : ASS
Codec ID : S_TEXT/ASS
Codec ID/Info : Advanced Sub Station Alpha
Duration : 51 min 10 s
Bit rate : 772 b/s
Count of elements : 1421
Compression mode : Lossless
Stream size : 290 KiB (0Loco
Title : Español Forzado [BOX]
Language : Spanish
Default : No
Forced : No

Text #4
ID : 8
Format : ASS
Codec ID : S_TEXT/ASS
Codec ID/Info : Advanced Sub Station Alpha
Duration : 57 min 31 s
Bit rate : 861 b/s
Count of elements : 1845
Compression mode : Lossless
Stream size : 363 KiB (0Loco
Title : Español [BOX]
Language : Spanish
Default : No
Forced : No

Menu
00:00:00.000 : es:Chapter 1
00:11:42.133 : es:Chapter 2
00:19:56.834 : es:Chapter 3
00:29:35.702 : es:Chapter 4
00:41:19.169 : es:Chapter 5
00:49:01.870 : es:Chapter 6

Gracias a overdrive por hacer posible esta subida.
24 Aug 2019, 21:14
Mensaje: #2

RE: Dragon Ball Z - Película 3: Superbatalla decisiva por la Tierra

Una lástima lo de los colorines en las fuentes, gracias por el aporte.
24 Aug 2019, 22:10
Mensaje: #3

RE: Dragon Ball Z - Película 3: Superbatalla decisiva por la Tierra

De nuevo, te agradezco que sigas subiendo esta release Guiño
26 Aug 2019, 01:41
Mensaje: #4

RE: Dragon Ball Z - Película 3: Superbatalla decisiva por la Tierra

Muchas gracias.
18 Sep 2019, 23:04
Mensaje: #5

RE: Dragon Ball Z - Película 3: Superbatalla decisiva por la Tierra

Añadido avance, y opening y ending sin créditos.
19 Sep 2019, 10:46
Mensaje: #6

RE: Dragon Ball Z - Película 3: Superbatalla decisiva por la Tierra

Muchas gracias por los extras Guiño



Usuario(s) navegando en este tema: 1 invitado(s)