¡Hola, Invitado! (Iniciar sesiónRegístrate)
Hora: 28 Feb 2020, 10:33
¿Sabías que haciendo una donación única o suscribiéndote en Patreon puedes hacerte VIP para navegar sin publicidad y obtener acceso al tracker privado con DVDs/BDs?

Dragon Ball Z - Película 7: ¡Batalla al límite! Los tres grandes Super Saiyans

29 Aug 2019, 21:58 (Este mensaje fue modificado por última vez en: 19 Sep 2019 21:36 por Slek)
Mensaje: #1

Dragon Ball Z - Película 7: ¡Batalla al límite! Los tres grandes Super Saiyans

Completo Dragon Ball Z - Película 7: ¡Batalla al límite! Los tres grandes Super Saiyans

Título original: Dragon Ball Z Movie 07: Kyokugen Battle!! Sandai Super Saiyajin
Fansub: EvoShare
Público: Shonen
Ambientación: Fantasía
Género: Acción
1
Duración: 46 min
1992
Video: 720x480 (DAR 4:3 - 16:9) H.264
Contenedor: MKVSoftsubs
Audio:
Servidor:
Solo los usuarios registrados pueden descargar por torrent
Archivos Torrent:[mostrar archivos]
[EvoShare] Dragon Ball Z Movie 07 - Avance - ¡¡Batalla al límite!! Los tres grandes Súper Saiyajins [DVD+DVD] [DUAL+SUBS] by overdrive [DF0AD013].mkv15,46 MB
[EvoShare] Dragon Ball Z Movie 07 - Ending Sin Créditos - ¡¡Batalla al límite!! Los tres grandes Súper Saiyajins [DVD+DVD] [DUAL+SUBS] by overdrive [3280EEF1].mkv13,07 MB
[EvoShare] Dragon Ball Z Movie 07 - Opening Sin Créditos - ¡¡Batalla al límite!! Los tres grandes Súper Saiyajins [DVD+DVD] [DUAL+SUBS] by overdrive [83AD6CBD].mkv32,05 MB
[EvoShare] Dragon Ball Z Movie 07 - ¡¡Batalla al límite!! Los tres grandes Súper Saiyajins [DVD+DVD] [DUAL+SUBS] by overdrive [BC9F7B37].mkv1,83 GB

Historia principal: Dragon Ball Z

Otros Fansubs:poxitron EvoShare
Aunque el doctor Gero muriera, su espíritu sigue vivo gracias al superordenador que ha seguido trabajando para eliminar a Son Goku. Unos extraños y fuertes androides irrumpen en la ciudad destruyéndolo todo y solo la unión sin precedentes de tres supersaiyas: Goku, Vegeta y Trunks, puede poner fin a la amenaza. Pero cuando el Nº 13 absorbe las baterías de sus hermanos caídos para que nazca un ser superior, puede que ni los tres supersaiyas puedan detenerlo.



MediaInfo:
Mostrar
General
Unique ID : 242060133737717821919197342599694427386 (0xB61B16037DF93A75B339B79C75F2A4FA)
Complete name : [EvoShare] Dragon Ball Z Movie 07 - ¡¡Batalla al límite!! Los tres grandes Súper Saiyajins [DVD+DVD] [DUAL+SUBS] by overdrive [BC9F7B37].mkv
Format : Matroska
Format version : Version 4 / Version 2
File size : 1.83 GiB
Duration : 44 min 8 s
Overall bit rate : 5 923 kb/s
Movie name : Bola de Dragon Z
Description : Película 07: ¡¡Batalla al límite!! Los tres grandes Súper Saiyajins
Encoded date : UTC 2016-05-10 19:11:40
Writing application : mkvmerge v9.1.0 ('Little Earthquakes') 64bit
Writing library : libebml v1.3.3 + libmatroska v1.4.4
Copyright : Evoshare © 2014
Cover : Yes
Attachments : 01 Kristen.ttf / 02 Jester.ttf / 03 Fennario.ttf / 04 Fennario negrita.ttf / 05 Chinacat.ttf / 06 Chinacat negrita.ttf / 07 Fawn.ttf / 08 HoboStd.otf / 09 Lucida Sans.ttf / 10 Klepon Scone.ttf / 11 Santana.ttf / 12 Girls Have Many Secrets.ttf / 13 angelina.TTF / 14 andrewsc.ttf / 15 giger.otf / 16 JandaManateeSolid.ttf / 17 KGEmpireofDirt.ttf / 18 A-OTF Kaisho MCBK1 Pro MCBK1 Bold.otf / 19 OneDirection.ttf / 20 One Stroke.TTF / 21 Impress BT.TTF / 22 Constance.ttf / 23 BellCentennialStd-BdListing.otf / 24 Beach.ttf / 25 rimouski sb.ttf / 26 Anysome Italic.otf / 27 Anysome.otf / 28 Maiandra.TTF / 29 MesquiteStd_0.otf / 30 Wingdings 2.ttf / 31 TektonPro-Bold.otf / 32 Comicisev2.ttf / 33 City-BoldItalic-Mod.ttf / 34 FromWhereYouAre.ttf / cover.jpg / small_cover.jpg / cover_land.jpg / small_cover_land.jpg
ARTIST : Overdrive

Video #1
ID : 1
Format : AVC
Format/Info : Advanced Video Codec
Format profile : High@L4.1
Format settings : CABAC / 16 Ref Frames
Format settings, CABAC : Yes
Format settings, ReFrames : 16 frames
Codec ID : V_MPEG4/ISO/AVC
Duration : 44 min 8 s
Bit rate : 3 037 kb/s
Width : 720 pixels
Height : 480 pixels
Display aspect ratio : 4:3
Frame rate mode : Constant
Frame rate : 25.000 FPS
Original frame rate : 23.976 (24000/1001) FPS
Color space : YUV
Chroma subsampling : 4:2:0
Bit depth : 8 bits
Scan type : Progressive
Bits/(Pixel*Frame) : 0.352
Stream size : 959 MiB (51Loco
Title : [EvoShare] Dragon Ball Movie 7 [USA]
Writing library : x264 core 142 r2389 956c8d8
Encoding settings : cabac=1 / ref=16 / deblock=1:0:0 / analyse=0x3:0x133 / me=umh / subme=10 / psy=1 / psy_rd=1.00:0.00 / mixed_ref=1 / me_range=24 / chroma_me=1 / trellis=2 / 8x8dct=1 / cqm=0 / deadzone=21,11 / fast_pskip=1 / chroma_qp_offset=-2 / threads=12 / lookahead_threads=1 / sliced_threads=0 / nr=0 / decimate=1 / interlaced=0 / bluray_compat=0 / constrained_intra=0 / bframes=3 / b_pyramid=2 / b_adapt=2 / b_bias=0 / direct=3 / weightb=1 / open_gop=0 / weightp=2 / keyint=240 / keyint_min=23 / scenecut=40 / intra_refresh=0 / rc_lookahead=60 / rc=crf / mbtree=1 / crf=14.0 / qcomp=0.60 / qpmin=0 / qpmax=69 / qpstep=4 / vbv_maxrate=62500 / vbv_bufsize=78125 / crf_max=20.0 / nal_hrd=none / filler=0 / ip_ratio=1.40 / aq=1:1.00
Language : English
Default : Yes
Forced : Yes

Video #2
ID : 2
Format : AVC
Format/Info : Advanced Video Codec
Format profile : High@L4.1
Format settings : CABAC / 16 Ref Frames
Format settings, CABAC : Yes
Format settings, ReFrames : 16 frames
Codec ID : V_MPEG4/ISO/AVC
Duration : 44 min 8 s
Bit rate : 2 324 kb/s
Width : 720 pixels
Height : 480 pixels
Display aspect ratio : 1.85:1
Original display aspect ratio : 16:9
Frame rate mode : Constant
Frame rate : 25.000 FPS
Color space : YUV
Chroma subsampling : 4:2:0
Bit depth : 8 bits
Scan type : Progressive
Bits/(Pixel*Frame) : 0.269
Stream size : 734 MiB (39Loco
Title : [EvoShare] Dragon Ball Movie 7 [BOX]
Writing library : x264 core 142 r2389 956c8d8
Encoding settings : cabac=1 / ref=16 / deblock=1:0:0 / analyse=0x3:0x133 / me=umh / subme=10 / psy=1 / psy_rd=1.00:0.00 / mixed_ref=1 / me_range=24 / chroma_me=1 / trellis=2 / 8x8dct=1 / cqm=0 / deadzone=21,11 / fast_pskip=1 / chroma_qp_offset=-2 / threads=12 / lookahead_threads=1 / sliced_threads=0 / nr=0 / decimate=1 / interlaced=0 / bluray_compat=0 / constrained_intra=0 / bframes=3 / b_pyramid=2 / b_adapt=2 / b_bias=0 / direct=3 / weightb=1 / open_gop=0 / weightp=2 / keyint=240 / keyint_min=23 / scenecut=40 / intra_refresh=0 / rc_lookahead=60 / rc=crf / mbtree=1 / crf=14.0 / qcomp=0.60 / qpmin=0 / qpmax=69 / qpstep=4 / vbv_maxrate=62500 / vbv_bufsize=78125 / crf_max=20.0 / nal_hrd=none / filler=0 / ip_ratio=1.40 / aq=1:1.00
Language : Japanese
Default : No
Forced : No

Audio #1
ID : 3
Format : AC-3
Format/Info : Audio Coding 3
Codec ID : A_AC3
Duration : 44 min 8 s
Bit rate mode : Constant
Bit rate : 256 kb/s
Channel(s) : 2 channels
Channel positions : Front: L R
Sampling rate : 48.0 kHz
Frame rate : 31.250 FPS (1536 SPF)
Bit depth : 16 bits
Compression mode : Lossy
Stream size : 80.8 MiB (4Loco
Title : Español 2.0 [DVD]
Language : Spanish
Service kind : Complete Main
Default : Yes
Forced : Yes

Audio #2
ID : 4
Format : AC-3
Format/Info : Audio Coding 3
Codec ID : A_AC3
Duration : 44 min 8 s
Bit rate mode : Constant
Bit rate : 256 kb/s
Channel(s) : 2 channels
Channel positions : Front: L R
Sampling rate : 48.0 kHz
Frame rate : 31.250 FPS (1536 SPF)
Bit depth : 16 bits
Compression mode : Lossy
Stream size : 80.8 MiB (4Loco
Title : Japones 2.0 [DVD]
Language : Japanese
Service kind : Complete Main
Default : No
Forced : No

Text #1
ID : 5
Format : ASS
Codec ID : S_TEXT/ASS
Codec ID/Info : Advanced Sub Station Alpha
Duration : 40 min 49 s
Bit rate : 7 b/s
Count of elements : 24
Compression mode : Lossless
Stream size : 2.27 KiB (0Loco
Title : Español Forzado [USA]
Language : Spanish
Default : Yes
Forced : Yes

Text #2
ID : 6
Format : ASS
Codec ID : S_TEXT/ASS
Codec ID/Info : Advanced Sub Station Alpha
Duration : 43 min 43 s
Bit rate : 808 b/s
Count of elements : 1193
Compression mode : Lossless
Stream size : 259 KiB (0Loco
Title : Español [USA]
Language : Spanish
Default : No
Forced : No

Text #3
ID : 7
Format : ASS
Codec ID : S_TEXT/ASS
Codec ID/Info : Advanced Sub Station Alpha
Duration : 40 min 49 s
Bit rate : 655 b/s
Count of elements : 923
Compression mode : Lossless
Stream size : 196 KiB (0Loco
Title : Español Forzado [BOX]
Language : Spanish
Default : No
Forced : No

Text #4
ID : 8
Format : ASS
Codec ID : S_TEXT/ASS
Codec ID/Info : Advanced Sub Station Alpha
Duration : 43 min 42 s
Bit rate : 802 b/s
Count of elements : 1193
Compression mode : Lossless
Stream size : 257 KiB (0Loco
Title : Español [BOX]
Language : Spanish
Default : No
Forced : No

Menu
00:00:00.000 : :Chapter 01
00:06:52.400 : :Chapter 02
00:16:44.301 : :Chapter 03
00:24:52.169 : :Chapter 04
00:32:24.037 : :Chapter 05

Gracias a overdrive por hacer posible esta subida.
30 Aug 2019, 09:35
Mensaje: #2

RE: Dragon Ball Z - Película 7: ¡Batalla al límite! Los tres grandes Super Saiyans

Muchas gracias a ti y a Overdrive.
31 Aug 2019, 00:19
Mensaje: #3

RE: Dragon Ball Z - Película 7: ¡Batalla al límite! Los tres grandes Super Saiyans

Muchas gracias por otra más Guiño
Esperemos que puedas conseguir las dos que faltan Guiño
19 Sep 2019, 21:37
Mensaje: #4

RE: Dragon Ball Z - Película 7: ¡Batalla al límite! Los tres grandes Super Saiyans

Añadido avance y opening y ending sin créditos.



Usuario(s) navegando en este tema: 1 invitado(s)