¡Hola, Invitado! (Iniciar sesiónRegístrate)
Hora: 26 Oct 2020, 01:51
¿Sabías que haciendo una donación única o suscribiéndote en Patreon puedes hacerte VIP para navegar sin publicidad y obtener acceso al tracker privado con DVDs/BDs?

Dragon Ball Z - Película 8: ¡Arde! Una ardiente, intensa y superferoz batalla

08 Sep 2019, 22:11 (Este mensaje fue modificado por última vez en: 19 Sep 2019 20:39 por Slek)
Mensaje: #1

Dragon Ball Z - Película 8: ¡Arde! Una ardiente, intensa y superferoz batalla

Completo Dragon Ball Z - Película 8: ¡Arde! Una ardiente, intensa y superferoz batalla

Título original: Dragon Ball Z Movie 08: Moetsukiro!! Nessen, Ressen, Chougekisen
Fansub: EvoShare
Público: Shonen
Ambientación: Fantasía
Género: Acción
1
Duración: 1 h 10 min
1993
Video: 720x480 (DAR 4:3 - 16:9) H.264
Contenedor: MKVSoftsubs
Audio:
Servidor:
Solo los usuarios registrados pueden descargar por torrent
Archivos Torrent:[mostrar archivos]
[EvoShare] Dragon Ball Z Movie 08 - Avance - ¡¡Arde!! Una ardiente, intensa y súper feroz batalla [DVD+DVD] [DUAL+SUBS] by overdrive [E2606FA5].mkv17,01 MB
[EvoShare] Dragon Ball Z Movie 08 - ¡¡Arde!! Una ardiente, intensa y súper feroz batalla [DVD+DVD] [DUAL+SUBS] by overdrive [79D7E4AD].mkv2,93 GB

Paragus va a la Tierra para pedir a Vegeta que ocupe el trono de su padre. Mientras, Goku es convocado por Kaioh para investigar la destrucción de la Galaxia del Sur. Los caminos de ambos les llevan hasta el nuevo planeta Vegeta, donde descubren que Paragus y su hijo Broly son más de lo que aparentan. Llevado por el odio hacia Goku, Broly se convierte en el temido supersaiya de la leyenda que amenaza la galaxia. ¿Quien saldrá victorioso de este épico duelo?



MediaInfo:
Mostrar
General
Unique ID : 186193265887322192048532833655723802371 (0x8C1384C46203EC3AAC15290BFA8A3F03)
Complete name : [EvoShare] Dragon Ball Z Movie 08 - ¡¡Arde!! Una ardiente, intensa y súper feroz batalla [DVD+DVD] [DUAL+SUBS] by overdrive [79D7E4AD].mkv
Format : Matroska
Format version : Version 4 / Version 2
File size : 2.93 GiB
Duration : 1 h 9 min
Overall bit rate : 6 046 kb/s
Movie name : Bola de Dragon Z
Description : Película 08: ¡¡Arde!! Una ardiente, intensa y súper feroz batalla
Encoded date : UTC 2016-05-11 17:20:35
Writing application : mkvmerge v9.1.0 ('Little Earthquakes') 64bit
Writing library : libebml v1.3.3 + libmatroska v1.4.4
Copyright : Evoshare © 2014
Cover : Yes
Attachments : 01 Kristen.ttf / 02 Jester.ttf / 03 Fennario.ttf / 04 Fennario negrita.ttf / 05 Chinacat.ttf / 06 Chinacat negrita.ttf / 07 Fawn.ttf / 08 HoboStd.otf / 09 Lucida Sans.ttf / 10 Klepon Scone.ttf / 11 Santana.ttf / 12 Girls Have Many Secrets.ttf / 13 angelina.TTF / 14 andrewsc.ttf / 15 giger.otf / 16 JandaManateeSolid.ttf / 17 KGEmpireofDirt.ttf / 18 A-OTF Kaisho MCBK1 Pro MCBK1 Bold.otf / 19 OneDirection.ttf / 20 One Stroke.TTF / 21 Impress BT.TTF / 22 Constance.ttf / 23 BellCentennialStd-BdListing.otf / 24 Beach.ttf / 25 rimouski sb.ttf / 26 Anysome Italic.otf / 27 Anysome.otf / 28 Maiandra.TTF / 29 MesquiteStd_0.otf / 30 Wingdings 2.ttf / 31 TektonPro-Bold.otf / 32 Comicisev2.ttf / 33 City-BoldItalic-Mod.ttf / 34 FromWhereYouAre.ttf / cover.jpg / small_cover.jpg / cover_land.jpg / small_cover_land.jpg
ARTIST : Overdrive

Video #1
ID : 1
Format : AVC
Format/Info : Advanced Video Codec
Format profile : High@L4.1
Format settings : CABAC / 16 Ref Frames
Format settings, CABAC : Yes
Format settings, ReFrames : 16 frames
Codec ID : V_MPEG4/ISO/AVC
Duration : 1 h 9 min
Bit rate : 2 716 kb/s
Width : 720 pixels
Height : 480 pixels
Display aspect ratio : 4:3
Frame rate mode : Constant
Frame rate : 25.000 FPS
Original frame rate : 23.976 (24000/1001) FPS
Color space : YUV
Chroma subsampling : 4:2:0
Bit depth : 8 bits
Scan type : Progressive
Bits/(Pixel*Frame) : 0.314
Stream size : 1.31 GiB (45Loco
Title : [EvoShare] Dragon Ball Movie 8 [USA]
Writing library : x264 core 140 r2377 1ca7bb9
Encoding settings : cabac=1 / ref=16 / deblock=1:0:0 / analyse=0x3:0x133 / me=umh / subme=10 / psy=1 / psy_rd=1.00:0.00 / mixed_ref=1 / me_range=24 / chroma_me=1 / trellis=2 / 8x8dct=1 / cqm=0 / deadzone=21,11 / fast_pskip=1 / chroma_qp_offset=-2 / threads=12 / lookahead_threads=1 / sliced_threads=0 / nr=0 / decimate=1 / interlaced=0 / bluray_compat=0 / constrained_intra=0 / bframes=3 / b_pyramid=2 / b_adapt=2 / b_bias=0 / direct=3 / weightb=1 / open_gop=0 / weightp=2 / keyint=240 / keyint_min=23 / scenecut=40 / intra_refresh=0 / rc_lookahead=60 / rc=crf / mbtree=1 / crf=14.0 / qcomp=0.60 / qpmin=0 / qpmax=69 / qpstep=4 / vbv_maxrate=62500 / vbv_bufsize=78125 / crf_max=20.0 / nal_hrd=none / filler=0 / ip_ratio=1.40 / aq=1:1.00
Language : English
Default : Yes
Forced : Yes

Video #2
ID : 2
Format : AVC
Format/Info : Advanced Video Codec
Format profile : High@L4.1
Format settings : CABAC / 16 Ref Frames
Format settings, CABAC : Yes
Format settings, ReFrames : 16 frames
Codec ID : V_MPEG4/ISO/AVC
Duration : 1 h 9 min
Bit rate : 2 770 kb/s
Width : 720 pixels
Height : 480 pixels
Display aspect ratio : 1.85:1
Original display aspect ratio : 16:9
Frame rate mode : Constant
Frame rate : 25.000 FPS
Color space : YUV
Chroma subsampling : 4:2:0
Bit depth : 8 bits
Scan type : Progressive
Bits/(Pixel*Frame) : 0.321
Stream size : 1.34 GiB (46Loco
Title : [EvoShare] Dragon Ball Movie 8 [BOX]
Writing library : x264 core 140 r2377 1ca7bb9
Encoding settings : cabac=1 / ref=16 / deblock=1:0:0 / analyse=0x3:0x133 / me=umh / subme=10 / psy=1 / psy_rd=1.00:0.00 / mixed_ref=1 / me_range=24 / chroma_me=1 / trellis=2 / 8x8dct=1 / cqm=0 / deadzone=21,11 / fast_pskip=1 / chroma_qp_offset=-2 / threads=12 / lookahead_threads=1 / sliced_threads=0 / nr=0 / decimate=1 / interlaced=0 / bluray_compat=0 / constrained_intra=0 / bframes=3 / b_pyramid=2 / b_adapt=2 / b_bias=0 / direct=3 / weightb=1 / open_gop=0 / weightp=2 / keyint=240 / keyint_min=23 / scenecut=40 / intra_refresh=0 / rc_lookahead=60 / rc=crf / mbtree=1 / crf=14.0 / qcomp=0.60 / qpmin=0 / qpmax=69 / qpstep=4 / vbv_maxrate=62500 / vbv_bufsize=78125 / crf_max=20.0 / nal_hrd=none / filler=0 / ip_ratio=1.40 / aq=1:1.00
Language : Japanese
Default : No
Forced : No

Audio #1
ID : 3
Format : AC-3
Format/Info : Audio Coding 3
Codec ID : A_AC3
Duration : 1 h 9 min
Bit rate mode : Constant
Bit rate : 256 kb/s
Channel(s) : 2 channels
Channel positions : Front: L R
Sampling rate : 48.0 kHz
Frame rate : 31.250 FPS (1536 SPF)
Bit depth : 16 bits
Compression mode : Lossy
Stream size : 127 MiB (4Loco
Title : Español 2.0 [DVD]
Language : Spanish
Service kind : Complete Main
Default : Yes
Forced : Yes

Audio #2
ID : 4
Format : AC-3
Format/Info : Audio Coding 3
Codec ID : A_AC3
Duration : 1 h 9 min
Bit rate mode : Constant
Bit rate : 256 kb/s
Channel(s) : 2 channels
Channel positions : Front: L R
Sampling rate : 48.0 kHz
Frame rate : 31.250 FPS (1536 SPF)
Bit depth : 16 bits
Compression mode : Lossy
Stream size : 127 MiB (4Loco
Title : Japones 2.0 [DVD]
Language : Japanese
Service kind : Complete Main
Default : No
Forced : No

Text #1
ID : 5
Format : ASS
Codec ID : S_TEXT/ASS
Codec ID/Info : Advanced Sub Station Alpha
Duration : 1 h 8 min
Bit rate : 3 437 b/s
Count of elements : 9641
Compression mode : Lossless
Stream size : 1.68 MiB (0Loco
Title : Español Forzado [USA]
Language : Spanish
Default : Yes
Forced : Yes

Text #2
ID : 6
Format : ASS
Codec ID : S_TEXT/ASS
Codec ID/Info : Advanced Sub Station Alpha
Duration : 1 h 8 min
Bit rate : 3 542 b/s
Count of elements : 9679
Compression mode : Lossless
Stream size : 1.73 MiB (0Loco
Title : Español [USA]
Language : Spanish
Default : No
Forced : No

Text #3
ID : 7
Format : ASS
Codec ID : S_TEXT/ASS
Codec ID/Info : Advanced Sub Station Alpha
Duration : 1 h 6 min
Bit rate : 3 373 b/s
Count of elements : 9088
Compression mode : Lossless
Stream size : 1.61 MiB (0Loco
Title : Español Forzado [BOX]
Language : Spanish
Default : No
Forced : No

Text #4
ID : 8
Format : ASS
Codec ID : S_TEXT/ASS
Codec ID/Info : Advanced Sub Station Alpha
Duration : 1 h 8 min
Bit rate : 3 439 b/s
Count of elements : 9683
Compression mode : Lossless
Stream size : 1.70 MiB (0Loco
Title : Español [BOX]
Language : Spanish
Default : No
Forced : No

Menu
00:00:00.000 : :Chapter 01
00:12:45.868 : :Chapter 02
00:21:52.035 : :Chapter 03
00:29:27.669 : :Chapter 04
00:40:50.570 : :Chapter 05
00:50:05.037 : :Chapter 06
01:00:57.838 : :Chapter 07

Gracias a overdrive por hacer posible esta subida.
09 Sep 2019, 07:49
Mensaje: #2

RE: Dragon Ball Z - Película 8: ¡Arde! Una ardiente, intensa y superferoz batalla

Muchas gracias Sonrisa
09 Sep 2019, 17:59
Mensaje: #3

RE: Dragon Ball Z - Película 8: ¡Arde! Una ardiente, intensa y superferoz batalla

Muchísimas gracias por la nueva tanda, compi Guiño
19 Sep 2019, 20:39
Mensaje: #4

RE: Dragon Ball Z - Película 8: ¡Arde! Una ardiente, intensa y superferoz batalla

Añadido avance.



Usuario(s) navegando en este tema: 1 invitado(s)