¡Hola, Invitado! (Iniciar sesiónRegístrate)
Hora: 29 Oct 2020, 00:21
¿Sabías que haciendo una donación única o suscribiéndote en Patreon puedes hacerte VIP para navegar sin publicidad y obtener acceso al tracker privado con DVDs/BDs?

Dragon Ball Z - Película 10: ¡El dúo peligroso! Los superguerreros nunca duermen

08 Sep 2019, 23:32 (Este mensaje fue modificado por última vez en: 19 Sep 2019 20:43 por Slek)
Mensaje: #1

Dragon Ball Z - Película 10: ¡El dúo peligroso! Los superguerreros nunca duermen

Completo Dragon Ball Z - Película 10: ¡El dúo peligroso! Los superguerreros nunca duermen

Título original: Dragon Ball Z Movie 10: Kiken na Futari! Super Senshi wa Nemurenai
Fansub: EvoShare
Público: Shonen
Ambientación: Fantasía
Género: Acción
1
Duración: 52 min
1994
Video: 720x480 (DAR 4:3 - 16:9) H.264
Contenedor: MKVSoftsubs
Audio:
Servidor:
Solo los usuarios registrados pueden descargar por torrent
Archivos Torrent:[mostrar archivos]
[EvoShare] Dragon Ball Z Movie 10 - Avance - ¡El dúo peligroso! Los súper guerreros nunca duermen [DVD+DVD] [DUAL+SUBS] by overdrive [6C53B5C3].mkv15,58 MB
[EvoShare] Dragon Ball Z Movie 10 - Resumen - ¡El dúo peligroso! Los súper guerreros nunca duermen [DVD+DVD] [DUAL+SUBS] by overdrive [C95C32D7].mkv25,59 MB
[EvoShare] Dragon Ball Z Movie 10 - ¡El dúo peligroso! Los súper guerreros nunca duermen [DVD+DVD] [DUAL+SUBS] by overdrive [0C307EDC].mkv2,29 GB

Otros Fansubs:poxitron EvoShare
Tras ser derrotado por Goku, Broly escapa a la Tierra gracias a una cápsula espacial y queda sumido en un sueño profundo en el fondo de un lago. Siete años más tarde, Videl, Trunks y Goten emprenden la búsqueda de las bolas de dragón y el llanto del hijo de Goku despierta al supersaiya. La mayor amenaza que el universo ha conocido ha regresado y Goku ya no está para detenerle. La única esperanza es que sus hijos, Gohan y Goten, consigan derrotarle.



MediaInfo:
Mostrar
General
Unique ID : 227686327403811210917492896258510969041 (0xAB4ACAA579B9C4D19B1F17425B1E58D1)
Complete name : [EvoShare] Dragon Ball Z Movie 10 - ¡El dúo peligroso! Los súper guerreros nunca duermen [DVD+DVD] [DUAL+SUBS] by overdrive [0C307EDC].mkv
Format : Matroska
Format version : Version 4 / Version 2
File size : 2.29 GiB
Duration : 50 min 1 s
Overall bit rate : 6 551 kb/s
Movie name : Bola de Dragon Z
Description : Película 10: ¡El dúo peligroso! Los súper guerreros nunca duermen
Encoded date : UTC 2016-05-22 13:45:05
Writing application : mkvmerge v9.1.0 ('Little Earthquakes') 64bit
Writing library : libebml v1.3.3 + libmatroska v1.4.4
Copyright : Evoshare © 2014
Cover : Yes
Attachments : 16 JandaManateeSolid.ttf / 17 KGEmpireofDirt.ttf / 18 A-OTF Kaisho MCBK1 Pro MCBK1 Bold.otf / 19 OneDirection.ttf / 20 One Stroke.TTF / 21 Impress BT.TTF / 22 Constance.ttf / 23 BellCentennialStd-BdListing.otf / 24 Beach.ttf / 25 rimouski sb.ttf / 26 Anysome Italic.otf / 27 Anysome.otf / 28 Maiandra.TTF / 29 MesquiteStd_0.otf / 30 Wingdings 2.ttf / 31 TektonPro-Bold.otf / 32 Comicisev2.ttf / 33 City-BoldItalic-Mod.ttf / 34 FromWhereYouAre.ttf / cover.jpg / small_cover.jpg / cover_land.jpg / small_cover_land.jpg / 01 Kristen.ttf / 02 Jester.ttf / 03 Fennario.ttf / 04 Fennario negrita.ttf / 05 Chinacat.ttf / 06 Chinacat negrita.ttf / 07 Fawn.ttf / 08 HoboStd.otf / 09 Lucida Sans.ttf / 10 Klepon Scone.ttf / 11 Santana.ttf / 12 Girls Have Many Secrets.ttf / 13 angelina.TTF / 14 andrewsc.ttf / 15 giger.otf / Pelicula 01.rar
ARTIST : Overdrive

Video #1
ID : 1
Format : AVC
Format/Info : Advanced Video Codec
Format profile : High@L4.1
Format settings : CABAC / 16 Ref Frames
Format settings, CABAC : Yes
Format settings, ReFrames : 16 frames
Codec ID : V_MPEG4/ISO/AVC
Duration : 50 min 1 s
Bit rate : 2 898 kb/s
Width : 720 pixels
Height : 480 pixels
Display aspect ratio : 4:3
Frame rate mode : Constant
Frame rate : 25.000 FPS
Original frame rate : 23.976 (24000/1001) FPS
Color space : YUV
Chroma subsampling : 4:2:0
Bit depth : 8 bits
Scan type : Progressive
Bits/(Pixel*Frame) : 0.335
Stream size : 1.01 GiB (44Loco
Title : [EvoShare] Dragon Ball Movie 10 [USA]
Writing library : x264 core 140 r2377 1ca7bb9
Encoding settings : cabac=1 / ref=16 / deblock=1:0:0 / analyse=0x3:0x133 / me=umh / subme=10 / psy=1 / psy_rd=1.00:0.00 / mixed_ref=1 / me_range=24 / chroma_me=1 / trellis=2 / 8x8dct=1 / cqm=0 / deadzone=21,11 / fast_pskip=1 / chroma_qp_offset=-2 / threads=12 / lookahead_threads=1 / sliced_threads=0 / nr=0 / decimate=1 / interlaced=0 / bluray_compat=0 / constrained_intra=0 / bframes=3 / b_pyramid=2 / b_adapt=2 / b_bias=0 / direct=3 / weightb=1 / open_gop=0 / weightp=2 / keyint=240 / keyint_min=23 / scenecut=40 / intra_refresh=0 / rc_lookahead=60 / rc=crf / mbtree=1 / crf=14.0 / qcomp=0.60 / qpmin=0 / qpmax=69 / qpstep=4 / vbv_maxrate=62500 / vbv_bufsize=78125 / crf_max=20.0 / nal_hrd=none / filler=0 / ip_ratio=1.40 / aq=1:1.00
Language : English
Default : Yes
Forced : Yes

Video #2
ID : 2
Format : AVC
Format/Info : Advanced Video Codec
Format profile : High@L4.1
Format settings : CABAC / 16 Ref Frames
Format settings, CABAC : Yes
Format settings, ReFrames : 16 frames
Codec ID : V_MPEG4/ISO/AVC
Duration : 50 min 1 s
Bit rate : 3 081 kb/s
Width : 720 pixels
Height : 480 pixels
Display aspect ratio : 1.85:1
Original display aspect ratio : 16:9
Frame rate mode : Constant
Frame rate : 25.000 FPS
Color space : YUV
Chroma subsampling : 4:2:0
Bit depth : 8 bits
Scan type : Progressive
Bits/(Pixel*Frame) : 0.357
Stream size : 1.08 GiB (47Loco
Title : [EvoShare] Dragon Ball Movie 10 [BOX]
Writing library : x264 core 140 r2377 1ca7bb9
Encoding settings : cabac=1 / ref=16 / deblock=1:0:0 / analyse=0x3:0x133 / me=umh / subme=10 / psy=1 / psy_rd=1.00:0.00 / mixed_ref=1 / me_range=24 / chroma_me=1 / trellis=2 / 8x8dct=1 / cqm=0 / deadzone=21,11 / fast_pskip=1 / chroma_qp_offset=-2 / threads=12 / lookahead_threads=1 / sliced_threads=0 / nr=0 / decimate=1 / interlaced=0 / bluray_compat=0 / constrained_intra=0 / bframes=3 / b_pyramid=2 / b_adapt=2 / b_bias=0 / direct=3 / weightb=1 / open_gop=0 / weightp=2 / keyint=240 / keyint_min=23 / scenecut=40 / intra_refresh=0 / rc_lookahead=60 / rc=crf / mbtree=1 / crf=14.0 / qcomp=0.60 / qpmin=0 / qpmax=69 / qpstep=4 / vbv_maxrate=62500 / vbv_bufsize=78125 / crf_max=20.0 / nal_hrd=none / filler=0 / ip_ratio=1.40 / aq=1:1.00
Language : Japanese
Default : No
Forced : No

Audio #1
ID : 3
Format : AC-3
Format/Info : Audio Coding 3
Codec ID : A_AC3
Duration : 50 min 1 s
Bit rate mode : Constant
Bit rate : 256 kb/s
Channel(s) : 2 channels
Channel positions : Front: L R
Sampling rate : 48.0 kHz
Frame rate : 31.250 FPS (1536 SPF)
Bit depth : 16 bits
Compression mode : Lossy
Stream size : 91.6 MiB (4Loco
Title : Español 2.0 [DVD]
Language : Spanish
Service kind : Complete Main
Default : Yes
Forced : Yes

Audio #2
ID : 4
Format : AC-3
Format/Info : Audio Coding 3
Codec ID : A_AC3
Duration : 50 min 1 s
Bit rate mode : Constant
Bit rate : 256 kb/s
Channel(s) : 2 channels
Channel positions : Front: L R
Sampling rate : 48.0 kHz
Frame rate : 31.250 FPS (1536 SPF)
Bit depth : 16 bits
Compression mode : Lossy
Stream size : 91.6 MiB (4Loco
Title : Japones 2.0 [DVD]
Language : Japanese
Service kind : Complete Main
Default : No
Forced : No

Text #1
ID : 5
Format : ASS
Codec ID : S_TEXT/ASS
Codec ID/Info : Advanced Sub Station Alpha
Duration : 48 min 26 s
Bit rate : 3 017 b/s
Count of elements : 2561
Compression mode : Lossless
Stream size : 1.05 MiB (0Loco
Title : Español Forzado [USA]
Language : Spanish
Default : Yes
Forced : Yes

Text #2
ID : 6
Format : ASS
Codec ID : S_TEXT/ASS
Codec ID/Info : Advanced Sub Station Alpha
Duration : 49 min 14 s
Bit rate : 3 032 b/s
Count of elements : 2897
Compression mode : Lossless
Stream size : 1.07 MiB (0Loco
Title : Español [USA]
Language : Spanish
Default : No
Forced : No

Text #3
ID : 7
Format : ASS
Codec ID : S_TEXT/ASS
Codec ID/Info : Advanced Sub Station Alpha
Duration : 48 min 26 s
Bit rate : 3 018 b/s
Count of elements : 2561
Compression mode : Lossless
Stream size : 1.05 MiB (0Loco
Title : Español Forzado [BOX]
Language : Spanish
Default : No
Forced : No

Text #4
ID : 8
Format : ASS
Codec ID : S_TEXT/ASS
Codec ID/Info : Advanced Sub Station Alpha
Duration : 49 min 14 s
Bit rate : 3 032 b/s
Count of elements : 2897
Compression mode : Lossless
Stream size : 1.07 MiB (0Loco
Title : Español [BOX]
Language : Spanish
Default : No
Forced : No

Menu
00:00:00.000 : :Chapter 01
00:11:38.968 : :Chapter 02
00:21:00.869 : :Chapter 03
00:32:21.536 : :Chapter 04
00:41:04.836 : :Chapter 05

Gracias a overdrive por hacer posible esta subida.
09 Sep 2019, 07:53
Mensaje: #2

RE: Dragon Ball Z - Película 10: ¡El dúo peligroso! Los superguerreros nunca duermen

¡Gracias!
09 Sep 2019, 18:02
Mensaje: #3

RE: Dragon Ball Z - Película 10: ¡El dúo peligroso! Los superguerreros nunca duermen

Muchísimas gracias por la nueva tanda, compi Guiño
19 Sep 2019, 20:44
Mensaje: #4

RE: Dragon Ball Z - Película 10: ¡El dúo peligroso! Los superguerreros nunca duermen

Añadido avance y resumen.



Usuario(s) navegando en este tema: 1 invitado(s)