¡Hola, Invitado! (Iniciar sesiónRegístrate)
Hora: 19 Jan 2020, 19:14
¿Sabías que haciendo una donación única o suscribiéndote en Patreon puedes hacerte VIP para navegar sin publicidad y obtener acceso al tracker privado con DVDs/BDs?

Haikyu!! Los ases del Vóley - Temporada 2

13 Sep 2019, 21:50 (Este mensaje fue modificado por última vez en: 27 Sep 2019 16:20 por keitaro_xp)
Mensaje: #1

Haikyu!! Los ases del Vóley - Temporada 2

Activo Haikyu!! Los ases del Vóley - Temporada 2

Título original: Haikyuu!! Second Season
Fansub: Keitaro_XP
Público: Shonen
Ambientación: Deportivo
Género: Comedia
25
Duración: 24
2015
Video: 1920x1080 HEVC
Contenedor: MKVSoftsubs
Audio:
Servidor:
Solo los usuarios registrados pueden descargar por torrent
Archivos Torrent:[mostrar archivos]
Haikyuu!_2x01.mkv1,17 GB
Haikyuu!_2x02.mkv1,08 GB
Haikyuu!_2x03.mkv1,09 GB
Haikyuu!_2x04.mkv1,06 GB
Haikyuu!_2x05.mkv1,08 GB
Haikyuu!_2x06.mkv1,13 GB
Haikyuu!_2x07.mkv1,11 GB
Haikyuu!_2x08.mkv1,05 GB
Haikyuu!_2x09.mkv1,11 GB
Haikyuu!_2x10.mkv1,13 GB
Haikyuu!_2x11.mkv1,13 GB
Haikyuu!_2x12.mkv1,09 GB
Haikyuu!_2x13.mkv1,12 GB
Haikyuu!_2x14.mkv1,13 GB
Haikyuu!_2x15.mkv1,17 GB
Haikyuu!_2x16.mkv1,18 GB
Haikyuu!_2x17.mkv1,10 GB
Haikyuu!_2x18.mkv1,21 GB
Haikyuu!_2x19.mkv1,20 GB
Haikyuu!_2x20.mkv1,22 GB
Haikyuu!_2x21.mkv1,23 GB
Haikyuu!_2x22.mkv1,21 GB
Haikyuu!_2x23.mkv1,15 GB
Haikyuu!_2x24.mkv1,26 GB
Haikyuu!_2x25.mkv1,02 GB

Otros Fansubs:Ñyuum
Segunda temporada de Haikyuu!!.

Después de perder contra el Aoba Johsai, todo el equipo del Karasuno siente una gran pérdida y desesperación, especialmente Hinata y Kageyama, que parecen ser los más devastados por la derrota.
Sin embargo, el equipo pronto se anima cuando apaece una oportunidad para ellos para ir a Tokio.
Durante un campamento de entrenamiento allí, el Karasuno se reunirá con nuevos oponentes formidables y se marcarán mayores metas.



Notas:
Mostrar
Ripeo de mis BluRay de "Haikyuu! 2ª Temporada", editados en España por Selecta-Vision.
El audio se ha comprimido a FLAC y los subtítulos no han sufrido modificación alguna; el video ha sido comprimido con h265 para un peso más ligero.
14 Sep 2019, 19:07
Mensaje: #2

RE: Haikyu!! Los ases del Vóley - Temporada 2

Gracias por la serie, ahora mismo estoy pensando en descargar Haikyuu otra vez y no sé si bajarme esta versión. La verdad no soy español y me incomoda mucho los regionalismos que usan en la mayoría de sus subtítulos, ¿la versión de selecta visión es buena en éste aspecto?
17 Sep 2019, 19:02
Mensaje: #3

RE: Haikyu!! Los ases del Vóley - Temporada 2

(14 Sep 2019 19:07)Austrow escribió:  Gracias por la serie, ahora mismo estoy pensando en descargar Haikyuu otra vez y no sé si bajarme esta versión. La verdad no soy español y me incomoda mucho los regionalismos que usan en la mayoría de sus subtítulos, ¿la versión de selecta visión es buena en éste aspecto?

Buenas! Pues a priori no sabría decirte la verdad. No es un castellano neutro es cierto, pero hay pocos regionalismos a mi punto de vista... Hay animes con cosas más marcadas, pero creo que este no es el caso.

A ver si esta noche puedo subir aunque sea el 1er episodio en MEGA y lo cuelgo para que puedas verlo si no puedes bajar el torrent.
17 Sep 2019, 22:31
Mensaje: #4

RE: Haikyu!! Los ases del Vóley - Temporada 2

(17 Sep 2019 19:02)keitaro_xp escribió:  
(14 Sep 2019 19:07)Austrow escribió:  Gracias por la serie, ahora mismo estoy pensando en descargar Haikyuu otra vez y no sé si bajarme esta versión. La verdad no soy español y me incomoda mucho los regionalismos que usan en la mayoría de sus subtítulos, ¿la versión de selecta visión es buena en éste aspecto?

Buenas! Pues a priori no sabría decirte la verdad. No es un castellano neutro es cierto, pero hay pocos regionalismos a mi punto de vista... Hay animes con cosas más marcadas, pero creo que este no es el caso.

A ver si esta noche puedo subir aunque sea el 1er episodio en MEGA y lo cuelgo para que puedas verlo si no puedes bajar el torrent.

Vale, muchísimas gracias.
17 Sep 2019, 22:34
Mensaje: #5

RE: Haikyu!! Los ases del Vóley - Temporada 2

¿--bitrate?
17 Sep 2019, 23:35
Mensaje: #6

RE: Haikyu!! Los ases del Vóley - Temporada 2

(17 Sep 2019 22:34)Kumicho escribió:  ¿--bitrate?

Te pego el mediainfo del 1er episodio (llevan todos el mismo):
spoiler:
Mostrar
General
Unique ID : 245409154106686641508825689921897235797 (0xB8A0157754796C5D9A7B23C0905E0555)
Complete name : C:\Users\Keita\Downloads\torrent\[Keitaro_XP] Haikyuu! S02 [1080p] [SPA_JAP-Audio] [SPA-Subs]\Haikyuu!_2x01.mkv
Format : Matroska
Format version : Version 4
File size : 1.25 GiB
Duration : 24 min 0 s
Overall bit rate mode : Variable
Overall bit rate : 7 478 kb/s
Encoded date : UTC 2019-09-13 14:07:11
Writing application : mkvmerge v36.0.0 ('Is That Jazz?') 64-bit
Writing library : libebml v1.3.9 + libmatroska v1.5.2

Video
ID : 1
Format : HEVC
Format/Info : High Efficiency Video Coding
Format profile : Main@L4@Main
Codec ID : V_MPEGH/ISO/HEVC
Duration : 23 min 59 s
Bit rate : 4 003 kb/s
Width : 1 920 pixels
Height : 1 080 pixels
Display aspect ratio : 16:9
Frame rate mode : Constant
Frame rate : 23.976 (24000/1001) FPS
Color space : YUV
Chroma subsampling : 4:2:0
Bit depth : 8 bits
Bits/(Pixel*Frame) : 0.081
Stream size : 687 MiB (53%)
Writing library : x265 2.6:[Mac OS X][clang 9.1.0][64 bit] 8bit+10bit+12bit
Encoding settings : cpuid=1050111 / frame-threads=2 / wpp / no-pmode / no-pme / no-psnr / no-ssim / log-level=2 / input-csp=1 / input-res=1920x1080 / interlace=0 / total-frames=0 / level-idc=0 / high-tier=1 / uhd-bd=0 / ref=1 / no-allow-non-conformance / no-repeat-headers / annexb / no-aud / no-hrd / info / hash=0 / no-temporal-layers / open-gop / min-keyint=24 / keyint=240 / bframes=3 / b-adapt=0 / b-pyramid / bframe-bias=0 / rc-lookahead=5 / lookahead-slices=6 / scenecut=0 / no-intra-refresh / ctu=32 / min-cu-size=16 / no-rect / no-amp / max-tu-size=32 / tu-inter-depth=1 / tu-intra-depth=1 / limit-tu=0 / rdoq-level=0 / dynamic-rd=0.00 / no-ssim-rd / no-signhide / no-tskip / nr-intra=0 / nr-inter=0 / no-constrained-intra / strong-intra-smoothing / max-merge=2 / limit-refs=0 / no-limit-modes / me=0 / subme=0 / merange=57 / temporal-mvp / no-weightp / no-weightb / no-analyze-src-pics / deblock=0:0 / no-sao / no-sao-non-deblock / rd=2 / early-skip / rskip / fast-intra / no-tskip-fast / no-cu-lossless / no-b-intra / no-splitrd-skip / rdpenalty=0 / psy-rd=2.00 / psy-rdoq=0.00 / no-rd-refine / analysis-reuse-mode=0 / no-lossless / cbqpoffs=0 / crqpoffs=0 / rc=abr / bitrate=4000 / qcomp=0.60 / qpstep=4 / stats-write=0 / stats-read=2 / cplxblur=20.0 / qblur=0.5 / ipratio=1.40 / pbratio=1.30 / aq-mode=1 / aq-strength=0.00 / cutree / zone-count=0 / no-strict-cbr / qg-size=32 / no-rc-grain / qpmax=69 / qpmin=0 / no-const-vbv / sar=1 / overscan=0 / videoformat=5 / range=0 / colorprim=1 / transfer=1 / colormatrix=1 / chromaloc=0 / display-window=0 / max-cll=0,0 / min-luma=0 / max-luma=255 / log2-max-poc-lsb=8 / vui-timing-info / vui-hrd-info / slices=1 / no-opt-qp-pps / no-opt-ref-list-length-pps / no-multi-pass-opt-rps / scenecut-bias=0.05 / no-opt-cu-delta-qp / no-aq-motion / no-hdr / no-hdr-opt / no-dhdr10-opt / analysis-reuse-level=5 / scale-factor=0 / refine-intra=0 / refine-inter=0 / refine-mv=0 / no-limit-sao / ctu-info=0 / no-lowpass-dct / refine-mv-type=0 / copy-pic=1
Default : Yes
Forced : No
Color range : Limited
Color primaries : BT.709
Transfer characteristics : BT.709
Matrix coefficients : BT.709

Audio #1
ID : 2
Format : DTS XLL
Format/Info : Digital Theater Systems
Commercial name : DTS-HD Master Audio
Codec ID : A_DTS
Duration : 24 min 0 s
Bit rate mode : Variable
Bit rate : 1 743 kb/s
Channel(s) : 2 channels
Channel layout : L R
Sampling rate : 48.0 kHz
Frame rate : 93.750 FPS (512 SPF)
Bit depth : 16 bits
Compression mode : Lossless
Stream size : 299 MiB (23%)
Language : Spanish
Default : Yes
Forced : No

Audio #2
ID : 3
Format : DTS XLL
Format/Info : Digital Theater Systems
Commercial name : DTS-HD Master Audio
Codec ID : A_DTS
Duration : 24 min 0 s
Bit rate mode : Variable
Bit rate : 1 721 kb/s
Channel(s) : 2 channels
Channel layout : L R
Sampling rate : 48.0 kHz
Frame rate : 93.750 FPS (512 SPF)
Bit depth : 16 bits
Compression mode : Lossless
Stream size : 296 MiB (23%)
Language : Japanese
Default : No
Forced : No

Text #1
ID : 4
Format : PGS
Muxing mode : zlib
Codec ID : S_HDMV/PGS
Codec ID/Info : Picture based subtitle format used on BDs/HD-DVDs
Duration : 23 min 10 s
Bit rate : 4 932 b/s
Count of elements : 116
Stream size : 837 KiB (0%)
Language : Spanish
Default : Yes
Forced : No

Text #2
ID : 5
Format : PGS
Muxing mode : zlib
Codec ID : S_HDMV/PGS
Codec ID/Info : Picture based subtitle format used on BDs/HD-DVDs
Duration : 23 min 31 s
Bit rate : 34.4 kb/s
Count of elements : 671
Stream size : 5.79 MiB (0%)
Language : Spanish
Default : No
Forced : No
17 Sep 2019, 23:37 (Este mensaje fue modificado por última vez en: 17 Sep 2019 23:37 por Kumicho)
Mensaje: #7

RE: Haikyu!! Los ases del Vóley - Temporada 2

(23 Oct 2011 18:46)Normas escribió:  No se permite subir animes que han sido comprimidos usando --bitrate en vez de --crf si el fansub ha trabajado dicho anime después del año 2013. Reconocerás la compresión de bitrate fijo porque todos los episodios ocupan lo mismo, lo cual no está permitido.

¿Es un remux? ¿Vas a hacer otro?
17 Sep 2019, 23:47
Mensaje: #8

RE: Haikyu!! Los ases del Vóley - Temporada 2

(17 Sep 2019 23:37)Kumicho escribió:  
(23 Oct 2011 18:46)Normas escribió:  No se permite subir animes que han sido comprimidos usando --bitrate en vez de --crf si el fansub ha trabajado dicho anime después del año 2013. Reconocerás la compresión de bitrate fijo porque todos los episodios ocupan lo mismo, lo cual no está permitido.

¿Es un remux? ¿Vas a hacer otro?

Pues debería de volver a ripear los 6 Bluray para hacerlo, pero visto que no está permitido tal y como está, tendré que hacerlo Pie en boca
27 Sep 2019, 16:21
Mensaje: #9

RE: Haikyu!! Los ases del Vóley - Temporada 2

Añadidos los enlaces a MEGA de la nueva versión que se está compartiendo por Torrent.
27 Sep 2019, 17:00
Mensaje: #10

RE: Haikyu!! Los ases del Vóley - Temporada 2

Muchas gracias! Aportazo.



Usuario(s) navegando en este tema: 1 invitado(s)