¡Hola, Invitado! (Iniciar sesiónRegístrate)
Hora: 25 Feb 2020, 13:38
¿Sabías que haciendo una donación única o suscribiéndote en Patreon puedes hacerte VIP para navegar sin publicidad y obtener acceso al tracker privado con DVDs/BDs?

Dragon Ball Z - Película 5: El más poderoso contra el más poderoso

03 Oct 2019, 23:58
Mensaje: #1

Dragon Ball Z - Película 5: El más poderoso contra el más poderoso

Completo Dragon Ball Z - Película 5: El más poderoso contra el más poderoso

Título original: Dragon Ball Z Movie 05: Tobikkiri no Saikyou tai Saikyou
Fansub: EvoShare
Público: Shonen
Ambientación: Fantasía
Género: Acción
1
Duración: 47 min
1991
Video: 1920x1080 (DAR 16:9) H.264
Contenedor: MKVSoftsubs
Audio:
Servidor:

Otros Fansubs:poxitron EvoShare
Hace más de veinte años, Cooler,el hermano mayor de Freezer, permitió que la cápsula espacial de un pequeño saiya escapara del planeta Vegeta. Ahora, ese saiya, Son Goku, es el supersaiya que ha acabado con su hermano Freezer. Por eso Cooler viaja a la Tierra para restaurar el honor de su familia. La única esperanza de la Tierra es que Goku se convierta de nuevo en supersaiya. Pero ¿bastará para detener a un adversario con un poder superior al de Freezer?



MediaInfo:
Mostrar
General
Unique ID : 179857222826740260433400769573003140970 (0x874F3DB9C115667C9E8FC5D952471F6A)
Complete name : [EvoShare] Dragon Ball Z Movie 05 - El más poderoso contra el más poderoso [BD+DVD] [DUAL+SUBS] by overdrive [9598F274].mkv
Format : Matroska
Format version : Version 4 / Version 2
File size : 5.10 GiB
Duration : 45 min 2 s
Overall bit rate : 16.2 Mb/s
Movie name : Bola de Dragon Z
Description : Película 05: El más poderoso contra el más poderoso
Encoded date : UTC 2016-05-08 14:45:13
Writing application : mkvmerge v9.1.0 ('Little Earthquakes') 64bit
Writing library : libebml v1.3.3 + libmatroska v1.4.4
Copyright : Evoshare © 2016
Cover : Yes
Attachments : 01 Kristen.ttf / 02 Jester.ttf / 03 Fennario.ttf / 04 Fennario negrita.ttf / 05 Chinacat.ttf / 06 Chinacat negrita.ttf / 07 Fawn.ttf / 08 HoboStd.otf / 09 Lucida Sans.ttf / 10 Klepon Scone.ttf / 11 Santana.ttf / 12 Girls Have Many Secrets.ttf / 13 angelina.TTF / 14 andrewsc.ttf / 15 giger.otf / 16 JandaManateeSolid.ttf / 17 KGEmpireofDirt.ttf / 18 A-OTF Kaisho MCBK1 Pro MCBK1 Bold.otf / 19 OneDirection.ttf / 20 One Stroke.TTF / 21 Impress BT.TTF / 22 Constance.ttf / 23 BellCentennialStd-BdListing.otf / 24 Beach.ttf / 25 rimouski sb.ttf / 26 Anysome Italic.otf / 27 Anysome.otf / 28 Maiandra.TTF / 29 MesquiteStd_0.otf / 30 Wingdings 2.ttf / 31 TektonPro-Bold.otf / 32 Comicisev2.ttf / 33 City-BoldItalic-Mod.ttf / 34 FromWhereYouAre.ttf / cover.jpg / small_cover.jpg / cover_land.jpg / small_cover_land.jpg
ARTIST : Overdrive

Video
ID : 1
Format : AVC
Format/Info : Advanced Video Codec
Format profile : High@L4.1
Format settings : CABAC / 4 Ref Frames
Format settings, CABAC : Yes
Format settings, ReFrames : 4 frames
Codec ID : V_MPEG4/ISO/AVC
Duration : 45 min 1 s
Bit rate : 14.9 Mb/s
Width : 1 920 pixels
Height : 1 080 pixels
Display aspect ratio : 16:9
Frame rate mode : Constant
Frame rate : 25.000 FPS
Original frame rate : 23.976 (24000/1001) FPS
Color space : YUV
Chroma subsampling : 4:2:0
Bit depth : 8 bits
Scan type : Progressive
Bits/(Pixel*Frame) : 0.287
Stream size : 4.68 GiB (92Loco
Title : [EvoShare] Dragon Ball Movie 5
Writing library : x264 core 148 r2692 64f4e24
Encoding settings : cabac=1 / ref=4 / deblock=1:0:0 / analyse=0x3:0x113 / me=esa / subme=9 / psy=1 / psy_rd=0.45:0.00 / mixed_ref=1 / me_range=16 / chroma_me=1 / trellis=1 / 8x8dct=1 / cqm=0 / deadzone=21,11 / fast_pskip=0 / chroma_qp_offset=-2 / threads=12 / lookahead_threads=1 / sliced_threads=0 / nr=0 / decimate=1 / interlaced=0 / bluray_compat=0 / constrained_intra=0 / bframes=3 / b_pyramid=2 / b_adapt=2 / b_bias=0 / direct=3 / weightb=1 / open_gop=0 / weightp=2 / keyint=240 / keyint_min=23 / scenecut=50 / intra_refresh=0 / rc_lookahead=50 / rc=crf / mbtree=1 / crf=18.0 / qcomp=0.65 / qpmin=0 / qpmax=69 / qpstep=4 / vbv_maxrate=62500 / vbv_bufsize=78125 / crf_max=0.0 / nal_hrd=none / filler=0 / ip_ratio=1.40 / aq=1:1.20
Language : Japanese
Default : Yes
Forced : Yes

Audio #1
ID : 2
Format : AC-3
Format/Info : Audio Coding 3
Codec ID : A_AC3
Duration : 45 min 2 s
Bit rate mode : Constant
Bit rate : 640 kb/s
Channel(s) : 2 channels
Channel positions : Front: L R
Sampling rate : 48.0 kHz
Frame rate : 31.250 FPS (1536 SPF)
Bit depth : 16 bits
Compression mode : Lossy
Stream size : 206 MiB (4Loco
Title : Español 2.0
Language : Spanish
Service kind : Complete Main
Default : Yes
Forced : Yes

Audio #2
ID : 3
Format : AC-3
Format/Info : Audio Coding 3
Codec ID : A_AC3
Duration : 45 min 2 s
Bit rate mode : Constant
Bit rate : 640 kb/s
Channel(s) : 2 channels
Channel positions : Front: L R
Sampling rate : 48.0 kHz
Frame rate : 31.250 FPS (1536 SPF)
Bit depth : 16 bits
Compression mode : Lossy
Stream size : 206 MiB (4Loco
Title : Japones 2.0
Language : Japanese
Service kind : Complete Main
Default : No
Forced : No

Text #1
ID : 4
Format : ASS
Codec ID : S_TEXT/ASS
Codec ID/Info : Advanced Sub Station Alpha
Duration : 42 min 6 s
Bit rate : 3 147 b/s
Count of elements : 1699
Compression mode : Lossless
Stream size : 971 KiB (0Loco
Title : Español Forzado
Language : Spanish
Default : Yes
Forced : Yes

Text #2
ID : 5
Format : ASS
Codec ID : S_TEXT/ASS
Codec ID/Info : Advanced Sub Station Alpha
Duration : 44 min 54 s
Bit rate : 3 160 b/s
Count of elements : 2148
Compression mode : Lossless
Stream size : 1.02 MiB (0Loco
Title : Español
Language : Spanish
Default : No
Forced : No

Menu
00:00:00.000 : es:Capítulo 01
00:02:51.159 : es:Capítulo 02
00:04:47.760 : es:Capítulo 03
00:09:19.320 : es:Capítulo 04
00:14:34.920 : es:Capítulo 05
00:20:31.400 : es:Capítulo 06
00:33:25.680 : es:Capítulo 07

Gracias a overdrive por hacer posible esta subida.
04 Oct 2019, 11:20
Mensaje: #2

RE: Dragon Ball Z - Película 5: El más poderoso contra el más poderoso

Muchísimas gracias, compi Guiño
04 Oct 2019, 12:57
Mensaje: #3

RE: Dragon Ball Z - Película 5: El más poderoso contra el más poderoso

Gracias.



Usuario(s) navegando en este tema: 1 invitado(s)