¡Hola, Invitado! (Iniciar sesiónRegístrate)
Hora: 28 Feb 2020, 11:24
¿Sabías que haciendo una donación única o suscribiéndote en Patreon puedes hacerte VIP para navegar sin publicidad y obtener acceso al tracker privado con DVDs/BDs?

Dragon Ball Z - Película 9: ¡La Vía Láctea al límite! Un tipo superincreíble

19 Oct 2019, 00:36
Mensaje: #1

Dragon Ball Z - Película 9: ¡La Vía Láctea al límite! Un tipo superincreíble

Completo Dragon Ball Z - Película 9: ¡La Vía Láctea al límite! Un tipo superincreíble

Título original: Dragon Ball Z Movie 09: Ginga Girigiri!! Bucchigiri no Sugoi Yatsu
Fansub: EvoShare
Público: Shonen
Ambientación: Fantasía
Género: Acción
1
Duración: 50 min
1993
Video: 1920x1080 (DAR 16:9) H.264
Contenedor: MKVSoftsubs
Audio:
Servidor:

Historia principal: Dragon Ball Z

Paragus va a la Tierra para pedir a Vegeta que ocupe el trono de su padre. Mientras, Goku es convocado por Kaioh para investigar la destrucción de la Galaxia del Sur. Los caminos de ambos les llevan hasta el nuevo planeta Vegeta, donde descubren que Paragus y su hijo Broly son más de lo que aparentan. Llevado por el odio hacia Goku, Broly se convierte en el temido supersaiya de la leyenda que amenaza la galaxia. ¿Quien saldrá victorioso de este épico duelo?



MediaInfo:
Mostrar
General
Unique ID : 174734394750844081178739771831544909689 (0x83749ECD0FF5C0299FB5D706823B0F79)
Complete name : [EvoShare] Dragon Ball Z Movie 09 - ¡¡La Vía Láctea al límite!! Un tipo súper increíble [BD+DVD] [DUAL+SUBS] by overdrive [9AD1E7AE].mkv
Format : Matroska
Format version : Version 4 / Version 2
File size : 7.56 GiB
Duration : 48 min 21 s
Overall bit rate : 22.4 Mb/s
Movie name : Bola de Dragon Z
Description : Película 09: ¡¡La Vía Láctea al límite!! Un tipo súper increíble
Encoded date : UTC 2016-05-23 18:23:14
Writing application : mkvmerge v9.1.0 ('Little Earthquakes') 64bit
Writing library : libebml v1.3.3 + libmatroska v1.4.4
Copyright : Evoshare © 2016
Cover : Yes
Attachments : 01 Kristen.ttf / 02 Jester.ttf / 03 Fennario.ttf / 04 Fennario negrita.ttf / 05 Chinacat.ttf / 06 Chinacat negrita.ttf / 07 Fawn.ttf / 08 HoboStd.otf / 09 Lucida Sans.ttf / 10 Klepon Scone.ttf / 11 Santana.ttf / 12 Girls Have Many Secrets.ttf / 13 angelina.TTF / 14 andrewsc.ttf / 15 giger.otf / 16 JandaManateeSolid.ttf / 17 KGEmpireofDirt.ttf / 18 A-OTF Kaisho MCBK1 Pro MCBK1 Bold.otf / 19 OneDirection.ttf / 20 One Stroke.TTF / 21 Impress BT.TTF / 22 Constance.ttf / 23 BellCentennialStd-BdListing.otf / 24 Beach.ttf / 25 rimouski sb.ttf / 26 Anysome Italic.otf / 27 Anysome.otf / 28 Maiandra.TTF / 29 MesquiteStd_0.otf / 30 Wingdings 2.ttf / 31 TektonPro-Bold.otf / 32 Comicisev2.ttf / 33 City-BoldItalic-Mod.ttf / 34 FromWhereYouAre.ttf / cover.jpg / small_cover.jpg / cover_land.jpg / small_cover_land.jpg
ARTIST : Overdrive

Video
ID : 1
Format : AVC
Format/Info : Advanced Video Codec
Format profile : High@L4.1
Format settings : CABAC / 4 Ref Frames
Format settings, CABAC : Yes
Format settings, ReFrames : 4 frames
Codec ID : V_MPEG4/ISO/AVC
Duration : 48 min 19 s
Bit rate : 21.0 Mb/s
Width : 1 920 pixels
Height : 1 080 pixels
Display aspect ratio : 16:9
Frame rate mode : Constant
Frame rate : 25.000 FPS
Original frame rate : 23.976 (24000/1001) FPS
Color space : YUV
Chroma subsampling : 4:2:0
Bit depth : 8 bits
Scan type : Progressive
Bits/(Pixel*Frame) : 0.406
Stream size : 7.11 GiB (94Loco
Title : [EvoShare] Dragon Ball Movie 9
Writing library : x264 core 148 r2694 3b70645
Encoding settings : cabac=1 / ref=4 / deblock=1:0:0 / analyse=0x3:0x113 / me=esa / subme=9 / psy=1 / psy_rd=0.45:0.00 / mixed_ref=1 / me_range=16 / chroma_me=1 / trellis=1 / 8x8dct=1 / cqm=0 / deadzone=21,11 / fast_pskip=0 / chroma_qp_offset=-2 / threads=12 / lookahead_threads=1 / sliced_threads=0 / nr=0 / decimate=1 / interlaced=0 / bluray_compat=0 / constrained_intra=0 / bframes=3 / b_pyramid=2 / b_adapt=2 / b_bias=0 / direct=3 / weightb=1 / open_gop=0 / weightp=2 / keyint=240 / keyint_min=23 / scenecut=50 / intra_refresh=0 / rc_lookahead=50 / rc=crf / mbtree=1 / crf=18.0 / qcomp=0.65 / qpmin=0 / qpmax=69 / qpstep=4 / vbv_maxrate=62500 / vbv_bufsize=78125 / crf_max=0.0 / nal_hrd=none / filler=0 / ip_ratio=1.40 / aq=1:1.20
Language : Japanese
Default : Yes
Forced : Yes

Audio #1
ID : 2
Format : AC-3
Format/Info : Audio Coding 3
Codec ID : A_AC3
Duration : 48 min 21 s
Bit rate mode : Constant
Bit rate : 640 kb/s
Channel(s) : 2 channels
Channel positions : Front: L R
Sampling rate : 48.0 kHz
Frame rate : 31.250 FPS (1536 SPF)
Bit depth : 16 bits
Compression mode : Lossy
Stream size : 221 MiB (3Loco
Title : Español 2.0
Language : Spanish
Service kind : Complete Main
Default : Yes
Forced : Yes

Audio #2
ID : 3
Format : AC-3
Format/Info : Audio Coding 3
Codec ID : A_AC3
Duration : 48 min 21 s
Bit rate mode : Constant
Bit rate : 640 kb/s
Channel(s) : 2 channels
Channel positions : Front: L R
Sampling rate : 48.0 kHz
Frame rate : 31.250 FPS (1536 SPF)
Bit depth : 16 bits
Compression mode : Lossy
Stream size : 221 MiB (3Loco
Title : Japones 2.0
Language : Japanese
Service kind : Complete Main
Default : No
Forced : No

Text #1
ID : 4
Format : ASS
Codec ID : S_TEXT/ASS
Codec ID/Info : Advanced Sub Station Alpha
Duration : 43 min 28 s
Bit rate : 5 433 b/s
Count of elements : 6371
Compression mode : Lossless
Stream size : 1.69 MiB (0Loco
Title : Español Forzado
Language : Spanish
Default : Yes
Forced : Yes

Text #2
ID : 5
Format : ASS
Codec ID : S_TEXT/ASS
Codec ID/Info : Advanced Sub Station Alpha
Duration : 48 min 1 s
Bit rate : 5 123 b/s
Count of elements : 6769
Compression mode : Lossless
Stream size : 1.76 MiB (0Loco
Title : Español
Language : Spanish
Default : No
Forced : No

Menu
00:00:00.000 : es:Capítulo 01
00:02:40.640 : es:Capítulo 02
00:04:25.280 : es:Capítulo 03
00:08:34.200 : es:Capítulo 04
00:13:53.640 : es:Capítulo 05
00:20:09.919 : es:Capítulo 06
00:27:34.479 : es:Capítulo 07
00:46:38.200 : es:Capítulo 10

Gracias a overdrive por hacer posible esta subida.
19 Oct 2019, 18:38
Mensaje: #2

RE: Dragon Ball Z - Película 9: ¡La Vía Láctea al límite! Un tipo superincreíble

Gracias.
20 Oct 2019, 11:08
Mensaje: #3

RE: Dragon Ball Z - Película 9: ¡La Vía Láctea al límite! Un tipo superincreíble

Muchísimas gracias Guiño



Usuario(s) navegando en este tema: 1 invitado(s)