¡Hola, Invitado! (Iniciar sesiónRegístrate)
Hora: 28 Feb 2020, 10:03
¿Sabías que haciendo una donación única o suscribiéndote en Patreon puedes hacerte VIP para navegar sin publicidad y obtener acceso al tracker privado con DVDs/BDs?

Dragon Ball Z - Película 11: ¡La derrota del superguerrero! La victoria será mía

01 Nov 2019, 23:20
Mensaje: #1

Dragon Ball Z - Película 11: ¡La derrota del superguerrero! La victoria será mía

Completo Dragon Ball Z - Película 11: ¡La derrota del superguerrero! La victoria será mía

Título original: Dragon Ball Z Movie 11: Super Senshi Gekiha!! Katsu no wa Ore da
Fansub: EvoShare
Público: Shonen
Ambientación: Fantasía
Género: Acción
1
Duración: 46 min
1994
Video: 1920x1080 (DAR 16:9) H.264
Contenedor: MKVSoftsubs
Audio:
Servidor:

Otros Fansubs:poxitron EvoShare
Jagger Batta chantajea a su rival Mr.Satan para que acuda a su isla secreta, donde le esperan unos bioguerreros. Por fortuna para él, el campeón del mundo es seguido por Goten y Trunks, que van en busca de aventuras, y la Nº 18, que no quiere perderle de vista hasta que le pague el dinero que le debe. Lo que ninguno sospecha es que los científicos también han encontrado la forma de resucitar a Broly, el supersaiya legendario.



MediaInfo:
Mostrar
General
Unique ID : 181479118579045228441221097889830268112 (0x88879B5C2CF62D6B9ADD869726AFECD0)
Complete name : [EvoShare] Dragon Ball Z Movie 11 - ¡La derrota del súper guerrero! La victoria será mía [BD+DVD] [DUAL+SUBS] by overdrive [FDC0DDF4].mkv
Format : Matroska
Format version : Version 4 / Version 2
File size : 7.16 GiB
Duration : 44 min 42 s
Overall bit rate : 22.9 Mb/s
Movie name : Bola de Dragon Z
Description : Película 11: ¡La derrota del súper guerrero! La victoria será mía
Encoded date : UTC 2016-05-23 19:00:07
Writing application : mkvmerge v9.1.0 ('Little Earthquakes') 64bit
Writing library : libebml v1.3.3 + libmatroska v1.4.4
Copyright : Evoshare © 2016
Cover : Yes
Attachments : 01 Kristen.ttf / 02 Jester.ttf / 03 Fennario.ttf / 04 Fennario negrita.ttf / 05 Chinacat.ttf / 06 Chinacat negrita.ttf / 07 Fawn.ttf / 08 HoboStd.otf / 09 Lucida Sans.ttf / 10 Klepon Scone.ttf / 11 Santana.ttf / 12 Girls Have Many Secrets.ttf / 13 angelina.TTF / 14 andrewsc.ttf / 15 giger.otf / 16 JandaManateeSolid.ttf / 17 KGEmpireofDirt.ttf / 18 A-OTF Kaisho MCBK1 Pro MCBK1 Bold.otf / 19 OneDirection.ttf / 20 One Stroke.TTF / 21 Impress BT.TTF / 22 Constance.ttf / 23 BellCentennialStd-BdListing.otf / 24 Beach.ttf / 25 rimouski sb.ttf / 26 Anysome Italic.otf / 27 Anysome.otf / 28 Maiandra.TTF / 29 MesquiteStd_0.otf / 30 Wingdings 2.ttf / 31 TektonPro-Bold.otf / 32 Comicisev2.ttf / 33 City-BoldItalic-Mod.ttf / 34 FromWhereYouAre.ttf / cover.jpg / small_cover.jpg / cover_land.jpg / small_cover_land.jpg
ARTIST : Overdrive

Video
ID : 1
Format : AVC
Format/Info : Advanced Video Codec
Format profile : High@L4.1
Format settings : CABAC / 4 Ref Frames
Format settings, CABAC : Yes
Format settings, ReFrames : 4 frames
Codec ID : V_MPEG4/ISO/AVC
Duration : 44 min 41 s
Bit rate : 21.6 Mb/s
Width : 1 920 pixels
Height : 1 080 pixels
Display aspect ratio : 16:9
Frame rate mode : Constant
Frame rate : 25.000 FPS
Original frame rate : 23.976 (24000/1001) FPS
Color space : YUV
Chroma subsampling : 4:2:0
Bit depth : 8 bits
Scan type : Progressive
Bits/(Pixel*Frame) : 0.417
Stream size : 6.74 GiB (94Loco
Title : [EvoShare] Dragon Ball Movie 10
Writing library : x264 core 148 r2694 3b70645
Encoding settings : cabac=1 / ref=4 / deblock=1:0:0 / analyse=0x3:0x113 / me=esa / subme=9 / psy=1 / psy_rd=0.45:0.00 / mixed_ref=1 / me_range=16 / chroma_me=1 / trellis=1 / 8x8dct=1 / cqm=0 / deadzone=21,11 / fast_pskip=0 / chroma_qp_offset=-2 / threads=12 / lookahead_threads=1 / sliced_threads=0 / nr=0 / decimate=1 / interlaced=0 / bluray_compat=0 / constrained_intra=0 / bframes=3 / b_pyramid=2 / b_adapt=2 / b_bias=0 / direct=3 / weightb=1 / open_gop=0 / weightp=2 / keyint=240 / keyint_min=23 / scenecut=50 / intra_refresh=0 / rc_lookahead=50 / rc=crf / mbtree=1 / crf=18.0 / qcomp=0.65 / qpmin=0 / qpmax=69 / qpstep=4 / vbv_maxrate=62500 / vbv_bufsize=78125 / crf_max=0.0 / nal_hrd=none / filler=0 / ip_ratio=1.40 / aq=1:1.20
Language : Japanese
Default : Yes
Forced : Yes

Audio #1
ID : 2
Format : AC-3
Format/Info : Audio Coding 3
Codec ID : A_AC3
Duration : 44 min 42 s
Bit rate mode : Constant
Bit rate : 640 kb/s
Channel(s) : 2 channels
Channel positions : Front: L R
Sampling rate : 48.0 kHz
Frame rate : 31.250 FPS (1536 SPF)
Bit depth : 16 bits
Compression mode : Lossy
Stream size : 205 MiB (3Loco
Title : Español 2.0
Language : Spanish
Service kind : Complete Main
Default : Yes
Forced : Yes

Audio #2
ID : 3
Format : AC-3
Format/Info : Audio Coding 3
Codec ID : A_AC3
Duration : 44 min 42 s
Bit rate mode : Constant
Bit rate : 640 kb/s
Channel(s) : 2 channels
Channel positions : Front: L R
Sampling rate : 48.0 kHz
Frame rate : 31.250 FPS (1536 SPF)
Bit depth : 16 bits
Compression mode : Lossy
Stream size : 205 MiB (3Loco
Title : Japones 2.0
Language : Japanese
Service kind : Complete Main
Default : No
Forced : No

Text #1
ID : 4
Format : ASS
Codec ID : S_TEXT/ASS
Codec ID/Info : Advanced Sub Station Alpha
Duration : 43 min 17 s
Bit rate : 2 825 b/s
Count of elements : 2313
Compression mode : Lossless
Stream size : 896 KiB (0Loco
Title : Español Forzado
Language : Spanish
Default : Yes
Forced : Yes

Text #2
ID : 5
Format : ASS
Codec ID : S_TEXT/ASS
Codec ID/Info : Advanced Sub Station Alpha
Duration : 43 min 47 s
Bit rate : 2 883 b/s
Count of elements : 2700
Compression mode : Lossless
Stream size : 925 KiB (0Loco
Title : Español
Language : Spanish
Default : No
Forced : No

Menu
00:00:00.000 : es:Capítulo 01
00:01:31.120 : es:Capítulo 02
00:03:17.200 : es:Capítulo 03
00:08:20.000 : es:Capítulo 04
00:16:06.079 : es:Capítulo 05
00:22:49.519 : es:Capítulo 06
00:29:49.120 : es:Capítulo 07
00:37:37.319 : es:Capítulo 08
00:41:09.999 : es:Capítulo 09
00:43:08.559 : es:Capítulo 10

Gracias a overdrive por hacer posible esta subida.
02 Nov 2019, 19:50
Mensaje: #2

RE: Dragon Ball Z - Película 11: ¡La derrota del superguerrero! La victoria será mía

Gracias.



Usuario(s) navegando en este tema: 1 invitado(s)