¡Hola, Invitado! (Iniciar sesiónRegístrate)
Hora: 22 Jan 2021, 14:42
¿Sabías que haciendo una donación única o suscribiéndote en Patreon puedes hacerte VIP para navegar sin publicidad y obtener acceso al tracker privado con DVDs/BDs?

Ataque a los Titanes - Temporada 3

26 Mar 2020, 23:06 (Este mensaje fue modificado por última vez en: 28 Aug 2020 06:50 por Tret)
Mensaje: #1

Ataque a los Titanes - Temporada 3

Completo Ataque a los Titanes - Temporada 3

Título original: Shingeki no Kyojin Season 3
Fansub: Adrià
Público: Shonen
Ambientación: Fantasía
Género: Acción
Director: Tetsurou Araki
Subtítulos: Selecta Visión
12
Duración: 24 min
2018
Video: 1920x1080 H.264
Contenedor: MKVSoftsubs
Audio:
Servidor:
Solo los usuarios registrados pueden descargar por torrent
Archivos Torrent:[mostrar archivos]
Ataque a los titanes 3x01 Señales de humo [BDRip 1080p h264 FLAC Subs][Spanish-Japanese][Adrià][Animelliure-GrupoTS].mkv1,50 GB
Ataque a los titanes 3x02 Dolor [BDRip 1080p h264 FLAC Subs][Spanish-Japanese][Adrià][Animelliure-GrupoTS].mkv1,64 GB
Ataque a los titanes 3x03 Relatos del pasado [BDRip 1080p h264 FLAC Subs][Spanish-Japanese][Adrià][Animelliure-GrupoTS].mkv1,39 GB
Ataque a los titanes 3x04 Confianza [BDRip 1080p h264 FLAC Subs][Spanish-Japanese][Adrià][Animelliure-GrupoTS].mkv1,66 GB
Ataque a los titanes 3x05 Respuestas [BDRip 1080p h264 FLAC Subs][Spanish-Japanese][Adrià][Animelliure-GrupoTS].mkv1,60 GB
Ataque a los titanes 3x06 El crimen [BDRip 1080p h264 FLAC Subs][Spanish-Japanese][Adrià][Animelliure-GrupoTS].mkv1,69 GB
Ataque a los titanes 3x07 Deseos [BDRip 1080p h264 FLAC Subs][Spanish-Japanese][Adrià][Animelliure-GrupoTS].mkv1,96 GB
Ataque a los titanes 3x08 El muro exterior del Distrito de Orvud [BDRip 1080p h264 FLAC Subs][Spanish-Japanese][Adrià][Animelliure-GrupoTS].mkv1,99 GB
Ataque a los titanes 3x09 La reina del muro [BDRip 1080p h264 FLAC Subs][Spanish-Japanese][Adrià][Animelliure-GrupoTS].mkv2,13 GB
Ataque a los titanes 3x10 Amigos [BDRip 1080p h264 FLAC Subs][Spanish-Japanese][Adrià][Animelliure-GrupoTS].mkv1,61 GB
Ataque a los titanes 3x11 Un mero espectador [BDRip 1080p h264 FLAC Subs][Spanish-Japanese][Adrià][Animelliure-GrupoTS].mkv1,47 GB
Ataque a los titanes 3x12 La víspera de la recuperación del muro [BDRip 1080p h264 FLAC Subs][Spanish-Japanese][Adrià][Animelliure-GrupoTS].mkv1,55 GB

En la tercera temporada de Ataque a los Titanes, Eren y sus compañeros no solo lucharán por su supervivencia contra los terroríficos titanes, sino también contra un terrible enemigo mucho más intrigante: los humanos.


27 Mar 2020, 01:08
Mensaje: #2

RE: Ataque a los Titanes - Temporada 3

Gracias amigo por la 3ra temp!
27 Mar 2020, 10:54
Mensaje: #3

RE: Ataque a los Titanes - Temporada 3

De nada, a disfrutarla!
27 Mar 2020, 16:02
Mensaje: #4

RE: Ataque a los Titanes - Temporada 3

¿Son subs oficiales?
29 Mar 2020, 13:26
Mensaje: #5

RE: Ataque a los Titanes - Temporada 3

(27 Mar 2020 16:02)PortgasDJosh escribió:  ¿Son subs oficiales?

Creo que si por el estilo que tienen, pero no estoy seguro.
28 Aug 2020, 06:57
Mensaje: #6

RE: Ataque a los Titanes - Temporada 3

@Nandoranks88, los nombres de los archivos que has subido a Uptobox no son los originales (imagino que es porque no descargaste la serie de la página web donde se publicó originalmente este montaje, puesto que pusiste "?" en el campo fansub en vez de "Adrià", que es quien hizo el montaje). Los originales son los del torrent que te acabo de crear, lo digo por si quieres cambiar los tuyos de Uptobox.

Ya te he arreglado los datos de la ficha técnica.

Mediainfo de tus archivos:
Mostrar
Ataque a lo Titanes - s03e01 - Señales de humo.mkv
Format : Matroska
Format version : Version 4
File size : 1.50 GiB
Duration : 23 min 56 s
Overall bit rate mode : Variable
Overall bit rate : 8 978 kb/s
Movie name : Ataque a los titanes 3x01 Señales de humo [BDRip 1080p h264 FLAC Subs][Spanish-Japanese][Adrià][Animelliure-GrupoTS]
Encoded date : UTC 2019-08-28 16:16:21
Writing application : mkvmerge v36.0.0 ('Is That Jazz?') 32-bit
Writing library : libebml v1.3.9 + libmatroska v1.5.2 / Lavf56.36.100
Attachments : Volkhov-Regular.ttf / calibrib.ttf / AGaramondPro-Regular.otf / ANGIE-BOLD.1.TTF / Clearface_SSi_Bold.ttf / KeplerStd-Regular.otf / KINESISSTD-BLACKITALIC.1.OTF

Video
ID : 1
Format : AVC
Format/Info : Advanced Video Codec
Format profile : High@L5
Format settings : CABAC / 5 Ref Frames
Format settings, CABAC : Yes
Format settings, Reference : 5 frames
Codec ID : V_MPEG4/ISO/AVC
Duration : 23 min 56 s
Bit rate : 7 143 kb/s
Width : 1 920 pixels
Height : 1 080 pixels
Display aspect ratio : 16:9
Frame rate mode : Constant
Frame rate : 23.976 (24000/1001) FPS
Color space : YUV
Chroma subsampling : 4:2:0
Bit depth : 8 bits
Scan type : Progressive
Bits/(Pixel*Frame) : 0.144
Stream size : 1.19 GiB (80Loco
Writing library : x264 core 155 r2901 7d0ff22
Encoding settings : cabac=1 / ref=5 / deblock=1:1:1 / analyse=0x3:0x113 / me=umh / subme=9 / psy=1 / psy_rd=1.00:0.00 / mixed_ref=1 / me_range=32 / chroma_me=1 / trellis=1 / 8x8dct=1 / cqm=0 / deadzone=21,11 / fast_pskip=0 / chroma_qp_offset=-2 / threads=34 / lookahead_threads=2 / sliced_threads=0 / nr=0 / decimate=1 / interlaced=0 / bluray_compat=0 / stitchable=1 / constrained_intra=0 / bframes=3 / b_pyramid=2 / b_adapt=2 / b_bias=0 / direct=1 / weightb=1 / open_gop=0 / weightp=1 / keyint=240 / keyint_min=23 / scenecut=40 / intra_refresh=0 / rc_lookahead=40 / rc=crf / mbtree=1 / crf=16.0 / qcomp=0.65 / qpmin=0 / qpmax=69 / qpstep=4 / ip_ratio=1.40 / aq=1:1.00
Language : Japanese
Default : Yes
Forced : No

Audio #1
ID : 2
Format : FLAC
Format/Info : Free Lossless Audio Codec
Codec ID : A_FLAC
Duration : 23 min 55 s
Bit rate mode : Variable
Bit rate : 523 kb/s
Channel(s) : 2 channels
Channel layout : L R
Sampling rate : 48.0 kHz
Frame rate : 11.719 FPS (4096 SPF)
Bit depth : 16 bits
Compression mode : Lossless
Delay relative to video : 4 ms
Stream size : 89.5 MiB (6Loco
Title : Castellano FLAC @ 24 bits 2.0
Writing library : libFLAC 1.2.1 (UTC 2007-09-17)
Language : Spanish
Default : Yes
Forced : No

Audio #2
ID : 3
Format : FLAC
Format/Info : Free Lossless Audio Codec
Codec ID : A_FLAC
Duration : 23 min 56 s
Bit rate mode : Variable
Bit rate : 1 248 kb/s
Channel(s) : 2 channels
Channel layout : L R
Sampling rate : 48.0 kHz
Frame rate : 11.719 FPS (4096 SPF)
Bit depth : 24 bits
Compression mode : Lossless
Stream size : 214 MiB (14Loco
Title : Japonés FLAC @ 16bits 2.0
Writing library : libFLAC 1.3.2 (UTC 2017-01-01)
Language : Japanese
Default : No
Forced : No

Text #1
ID : 4
Format : ASS
Codec ID : S_TEXT/ASS
Codec ID/Info : Advanced Sub Station Alpha
Duration : 23 min 6 s
Bit rate : 21.3 kb/s
Count of elements : 16553
Compression mode : Lossless
Stream size : 3.51 MiB (0Loco
Title : Castellano [Forzados]
Language : Spanish
Default : Yes
Forced : Yes

Text #2
ID : 5
Format : ASS
Codec ID : S_TEXT/ASS
Codec ID/Info : Advanced Sub Station Alpha
Duration : 23 min 41 s
Bit rate : 20.9 kb/s
Count of elements : 16886
Compression mode : Lossless
Stream size : 3.54 MiB (0Loco
Title : Castellano [Completos]
Language : Spanish
Default : No
Forced : No

Menu
00:00:00.000 : esSacar lenguarólogo
00:00:35.000 : es:Opening
00:02:05.000 : es:Parte A
00:16:29.000 : es:Información divulgable
00:16:35.000 : es:Parte B
00:23:40.000 : es:Avance
Mediainfo de los originales:
Mostrar
Ataque a los titanes 3x01 Señales de humo [BDRip 1080p h264 FLAC Subs][Spanish-Japanese][Adrià][Animelliure-GrupoTS].mkv
Format : Matroska
Format version : Version 4
File size : 1.50 GiB
Duration : 23 min 56 s
Overall bit rate mode : Variable
Overall bit rate : 8 978 kb/s
Movie name : Ataque a los titanes 3x01 Señales de humo [BDRip 1080p h264 FLAC Subs][Spanish-Japanese][Adrià][Animelliure-GrupoTS]
Encoded date : UTC 2019-08-28 16:16:21
Writing application : mkvmerge v36.0.0 ('Is That Jazz?') 32-bit
Writing library : libebml v1.3.9 + libmatroska v1.5.2 / Lavf56.36.100
Attachments : Volkhov-Regular.ttf / calibrib.ttf / AGaramondPro-Regular.otf / ANGIE-BOLD.1.TTF / Clearface_SSi_Bold.ttf / KeplerStd-Regular.otf / KINESISSTD-BLACKITALIC.1.OTF

Video
ID : 1
Format : AVC
Format/Info : Advanced Video Codec
Format profile : High@L5
Format settings : CABAC / 5 Ref Frames
Format settings, CABAC : Yes
Format settings, Reference : 5 frames
Codec ID : V_MPEG4/ISO/AVC
Duration : 23 min 56 s
Bit rate : 7 143 kb/s
Width : 1 920 pixels
Height : 1 080 pixels
Display aspect ratio : 16:9
Frame rate mode : Constant
Frame rate : 23.976 (24000/1001) FPS
Color space : YUV
Chroma subsampling : 4:2:0
Bit depth : 8 bits
Scan type : Progressive
Bits/(Pixel*Frame) : 0.144
Stream size : 1.19 GiB (80Loco
Writing library : x264 core 155 r2901 7d0ff22
Encoding settings : cabac=1 / ref=5 / deblock=1:1:1 / analyse=0x3:0x113 / me=umh / subme=9 / psy=1 / psy_rd=1.00:0.00 / mixed_ref=1 / me_range=32 / chroma_me=1 / trellis=1 / 8x8dct=1 / cqm=0 / deadzone=21,11 / fast_pskip=0 / chroma_qp_offset=-2 / threads=34 / lookahead_threads=2 / sliced_threads=0 / nr=0 / decimate=1 / interlaced=0 / bluray_compat=0 / stitchable=1 / constrained_intra=0 / bframes=3 / b_pyramid=2 / b_adapt=2 / b_bias=0 / direct=1 / weightb=1 / open_gop=0 / weightp=1 / keyint=240 / keyint_min=23 / scenecut=40 / intra_refresh=0 / rc_lookahead=40 / rc=crf / mbtree=1 / crf=16.0 / qcomp=0.65 / qpmin=0 / qpmax=69 / qpstep=4 / ip_ratio=1.40 / aq=1:1.00
Language : Japanese
Default : Yes
Forced : No

Audio #1
ID : 2
Format : FLAC
Format/Info : Free Lossless Audio Codec
Codec ID : A_FLAC
Duration : 23 min 55 s
Bit rate mode : Variable
Bit rate : 523 kb/s
Channel(s) : 2 channels
Channel layout : L R
Sampling rate : 48.0 kHz
Frame rate : 11.719 FPS (4096 SPF)
Bit depth : 16 bits
Compression mode : Lossless
Delay relative to video : 4 ms
Stream size : 89.5 MiB (6Loco
Title : Castellano FLAC @ 24 bits 2.0
Writing library : libFLAC 1.2.1 (UTC 2007-09-17)
Language : Spanish
Default : Yes
Forced : No

Audio #2
ID : 3
Format : FLAC
Format/Info : Free Lossless Audio Codec
Codec ID : A_FLAC
Duration : 23 min 56 s
Bit rate mode : Variable
Bit rate : 1 248 kb/s
Channel(s) : 2 channels
Channel layout : L R
Sampling rate : 48.0 kHz
Frame rate : 11.719 FPS (4096 SPF)
Bit depth : 24 bits
Compression mode : Lossless
Stream size : 214 MiB (14Loco
Title : Japonés FLAC @ 16bits 2.0
Writing library : libFLAC 1.3.2 (UTC 2017-01-01)
Language : Japanese
Default : No
Forced : No

Text #1
ID : 4
Format : ASS
Codec ID : S_TEXT/ASS
Codec ID/Info : Advanced Sub Station Alpha
Duration : 23 min 6 s
Bit rate : 21.3 kb/s
Count of elements : 16553
Compression mode : Lossless
Stream size : 3.51 MiB (0Loco
Title : Castellano [Forzados]
Language : Spanish
Default : Yes
Forced : Yes

Text #2
ID : 5
Format : ASS
Codec ID : S_TEXT/ASS
Codec ID/Info : Advanced Sub Station Alpha
Duration : 23 min 41 s
Bit rate : 20.9 kb/s
Count of elements : 16886
Compression mode : Lossless
Stream size : 3.54 MiB (0Loco
Title : Castellano [Completos]
Language : Spanish
Default : No
Forced : No

Menu
00:00:00.000 : esSacar lenguarólogo
00:00:35.000 : es:Opening
00:02:05.000 : es:Parte A
00:16:29.000 : es:Información divulgable
00:16:35.000 : es:Parte B
00:23:40.000 : es:Avance
31 Aug 2020, 23:26 (Este mensaje fue modificado por última vez en: 04 Sep 2020 13:28 por jmoreno99)
Mensaje: #7

RE: Ataque a los Titanes - Temporada 3

¿Esta previsto subir la parte dos de la tercera temporada con audio en castellano? Gracias @Nandoranks88
26 Oct 2020, 15:00 (Este mensaje fue modificado por última vez en: 26 Oct 2020 15:02 por Nandoranks88)
Mensaje: #8

RE: Ataque a los Titanes - Temporada 3

(28 Aug 2020 06:57)Tret escribió:  @Nandoranks88, los nombres de los archivos que has subido a Uptobox no son los originales (imagino que es porque no descargaste la serie de la página web donde se publicó originalmente este montaje, puesto que pusiste "?" en el campo fansub en vez de "Adrià", que es quien hizo el montaje). Los originales son los del torrent que te acabo de crear, lo digo por si quieres cambiar los tuyos de Uptobox.

Ya te he arreglado los datos de la ficha técnica.

Mediainfo de tus archivos:
Mostrar
Ataque a lo Titanes - s03e01 - Señales de humo.mkv
Format : Matroska
Format version : Version 4
File size : 1.50 GiB
Duration : 23 min 56 s
Overall bit rate mode : Variable
Overall bit rate : 8 978 kb/s
Movie name : Ataque a los titanes 3x01 Señales de humo [BDRip 1080p h264 FLAC Subs][Spanish-Japanese][Adrià][Animelliure-GrupoTS]
Encoded date : UTC 2019-08-28 16:16:21
Writing application : mkvmerge v36.0.0 ('Is That Jazz?') 32-bit
Writing library : libebml v1.3.9 + libmatroska v1.5.2 / Lavf56.36.100
Attachments : Volkhov-Regular.ttf / calibrib.ttf / AGaramondPro-Regular.otf / ANGIE-BOLD.1.TTF / Clearface_SSi_Bold.ttf / KeplerStd-Regular.otf / KINESISSTD-BLACKITALIC.1.OTF

Video
ID : 1
Format : AVC
Format/Info : Advanced Video Codec
Format profile : High@L5
Format settings : CABAC / 5 Ref Frames
Format settings, CABAC : Yes
Format settings, Reference : 5 frames
Codec ID : V_MPEG4/ISO/AVC
Duration : 23 min 56 s
Bit rate : 7 143 kb/s
Width : 1 920 pixels
Height : 1 080 pixels
Display aspect ratio : 16:9
Frame rate mode : Constant
Frame rate : 23.976 (24000/1001) FPS
Color space : YUV
Chroma subsampling : 4:2:0
Bit depth : 8 bits
Scan type : Progressive
Bits/(Pixel*Frame) : 0.144
Stream size : 1.19 GiB (80Loco
Writing library : x264 core 155 r2901 7d0ff22
Encoding settings : cabac=1 / ref=5 / deblock=1:1:1 / analyse=0x3:0x113 / me=umh / subme=9 / psy=1 / psy_rd=1.00:0.00 / mixed_ref=1 / me_range=32 / chroma_me=1 / trellis=1 / 8x8dct=1 / cqm=0 / deadzone=21,11 / fast_pskip=0 / chroma_qp_offset=-2 / threads=34 / lookahead_threads=2 / sliced_threads=0 / nr=0 / decimate=1 / interlaced=0 / bluray_compat=0 / stitchable=1 / constrained_intra=0 / bframes=3 / b_pyramid=2 / b_adapt=2 / b_bias=0 / direct=1 / weightb=1 / open_gop=0 / weightp=1 / keyint=240 / keyint_min=23 / scenecut=40 / intra_refresh=0 / rc_lookahead=40 / rc=crf / mbtree=1 / crf=16.0 / qcomp=0.65 / qpmin=0 / qpmax=69 / qpstep=4 / ip_ratio=1.40 / aq=1:1.00
Language : Japanese
Default : Yes
Forced : No

Audio #1
ID : 2
Format : FLAC
Format/Info : Free Lossless Audio Codec
Codec ID : A_FLAC
Duration : 23 min 55 s
Bit rate mode : Variable
Bit rate : 523 kb/s
Channel(s) : 2 channels
Channel layout : L R
Sampling rate : 48.0 kHz
Frame rate : 11.719 FPS (4096 SPF)
Bit depth : 16 bits
Compression mode : Lossless
Delay relative to video : 4 ms
Stream size : 89.5 MiB (6Loco
Title : Castellano FLAC @ 24 bits 2.0
Writing library : libFLAC 1.2.1 (UTC 2007-09-17)
Language : Spanish
Default : Yes
Forced : No

Audio #2
ID : 3
Format : FLAC
Format/Info : Free Lossless Audio Codec
Codec ID : A_FLAC
Duration : 23 min 56 s
Bit rate mode : Variable
Bit rate : 1 248 kb/s
Channel(s) : 2 channels
Channel layout : L R
Sampling rate : 48.0 kHz
Frame rate : 11.719 FPS (4096 SPF)
Bit depth : 24 bits
Compression mode : Lossless
Stream size : 214 MiB (14Loco
Title : Japonés FLAC @ 16bits 2.0
Writing library : libFLAC 1.3.2 (UTC 2017-01-01)
Language : Japanese
Default : No
Forced : No

Text #1
ID : 4
Format : ASS
Codec ID : S_TEXT/ASS
Codec ID/Info : Advanced Sub Station Alpha
Duration : 23 min 6 s
Bit rate : 21.3 kb/s
Count of elements : 16553
Compression mode : Lossless
Stream size : 3.51 MiB (0Loco
Title : Castellano [Forzados]
Language : Spanish
Default : Yes
Forced : Yes

Text #2
ID : 5
Format : ASS
Codec ID : S_TEXT/ASS
Codec ID/Info : Advanced Sub Station Alpha
Duration : 23 min 41 s
Bit rate : 20.9 kb/s
Count of elements : 16886
Compression mode : Lossless
Stream size : 3.54 MiB (0Loco
Title : Castellano [Completos]
Language : Spanish
Default : No
Forced : No

Menu
00:00:00.000 : esSacar lenguarólogo
00:00:35.000 : es:Opening
00:02:05.000 : es:Parte A
00:16:29.000 : es:Información divulgable
00:16:35.000 : es:Parte B
00:23:40.000 : es:Avance
Mediainfo de los originales:
Mostrar
Ataque a los titanes 3x01 Señales de humo [BDRip 1080p h264 FLAC Subs][Spanish-Japanese][Adrià][Animelliure-GrupoTS].mkv
Format : Matroska
Format version : Version 4
File size : 1.50 GiB
Duration : 23 min 56 s
Overall bit rate mode : Variable
Overall bit rate : 8 978 kb/s
Movie name : Ataque a los titanes 3x01 Señales de humo [BDRip 1080p h264 FLAC Subs][Spanish-Japanese][Adrià][Animelliure-GrupoTS]
Encoded date : UTC 2019-08-28 16:16:21
Writing application : mkvmerge v36.0.0 ('Is That Jazz?') 32-bit
Writing library : libebml v1.3.9 + libmatroska v1.5.2 / Lavf56.36.100
Attachments : Volkhov-Regular.ttf / calibrib.ttf / AGaramondPro-Regular.otf / ANGIE-BOLD.1.TTF / Clearface_SSi_Bold.ttf / KeplerStd-Regular.otf / KINESISSTD-BLACKITALIC.1.OTF

Video
ID : 1
Format : AVC
Format/Info : Advanced Video Codec
Format profile : High@L5
Format settings : CABAC / 5 Ref Frames
Format settings, CABAC : Yes
Format settings, Reference : 5 frames
Codec ID : V_MPEG4/ISO/AVC
Duration : 23 min 56 s
Bit rate : 7 143 kb/s
Width : 1 920 pixels
Height : 1 080 pixels
Display aspect ratio : 16:9
Frame rate mode : Constant
Frame rate : 23.976 (24000/1001) FPS
Color space : YUV
Chroma subsampling : 4:2:0
Bit depth : 8 bits
Scan type : Progressive
Bits/(Pixel*Frame) : 0.144
Stream size : 1.19 GiB (80Loco
Writing library : x264 core 155 r2901 7d0ff22
Encoding settings : cabac=1 / ref=5 / deblock=1:1:1 / analyse=0x3:0x113 / me=umh / subme=9 / psy=1 / psy_rd=1.00:0.00 / mixed_ref=1 / me_range=32 / chroma_me=1 / trellis=1 / 8x8dct=1 / cqm=0 / deadzone=21,11 / fast_pskip=0 / chroma_qp_offset=-2 / threads=34 / lookahead_threads=2 / sliced_threads=0 / nr=0 / decimate=1 / interlaced=0 / bluray_compat=0 / stitchable=1 / constrained_intra=0 / bframes=3 / b_pyramid=2 / b_adapt=2 / b_bias=0 / direct=1 / weightb=1 / open_gop=0 / weightp=1 / keyint=240 / keyint_min=23 / scenecut=40 / intra_refresh=0 / rc_lookahead=40 / rc=crf / mbtree=1 / crf=16.0 / qcomp=0.65 / qpmin=0 / qpmax=69 / qpstep=4 / ip_ratio=1.40 / aq=1:1.00
Language : Japanese
Default : Yes
Forced : No

Audio #1
ID : 2
Format : FLAC
Format/Info : Free Lossless Audio Codec
Codec ID : A_FLAC
Duration : 23 min 55 s
Bit rate mode : Variable
Bit rate : 523 kb/s
Channel(s) : 2 channels
Channel layout : L R
Sampling rate : 48.0 kHz
Frame rate : 11.719 FPS (4096 SPF)
Bit depth : 16 bits
Compression mode : Lossless
Delay relative to video : 4 ms
Stream size : 89.5 MiB (6Loco
Title : Castellano FLAC @ 24 bits 2.0
Writing library : libFLAC 1.2.1 (UTC 2007-09-17)
Language : Spanish
Default : Yes
Forced : No

Audio #2
ID : 3
Format : FLAC
Format/Info : Free Lossless Audio Codec
Codec ID : A_FLAC
Duration : 23 min 56 s
Bit rate mode : Variable
Bit rate : 1 248 kb/s
Channel(s) : 2 channels
Channel layout : L R
Sampling rate : 48.0 kHz
Frame rate : 11.719 FPS (4096 SPF)
Bit depth : 24 bits
Compression mode : Lossless
Stream size : 214 MiB (14Loco
Title : Japonés FLAC @ 16bits 2.0
Writing library : libFLAC 1.3.2 (UTC 2017-01-01)
Language : Japanese
Default : No
Forced : No

Text #1
ID : 4
Format : ASS
Codec ID : S_TEXT/ASS
Codec ID/Info : Advanced Sub Station Alpha
Duration : 23 min 6 s
Bit rate : 21.3 kb/s
Count of elements : 16553
Compression mode : Lossless
Stream size : 3.51 MiB (0Loco
Title : Castellano [Forzados]
Language : Spanish
Default : Yes
Forced : Yes

Text #2
ID : 5
Format : ASS
Codec ID : S_TEXT/ASS
Codec ID/Info : Advanced Sub Station Alpha
Duration : 23 min 41 s
Bit rate : 20.9 kb/s
Count of elements : 16886
Compression mode : Lossless
Stream size : 3.54 MiB (0Loco
Title : Castellano [Completos]
Language : Spanish
Default : No
Forced : No

Menu
00:00:00.000 : esSacar lenguarólogo
00:00:35.000 : es:Opening
00:02:05.000 : es:Parte A
00:16:29.000 : es:Información divulgable
00:16:35.000 : es:Parte B
00:23:40.000 : es:Avance

Gracias por la aportación, acabo de cambiar los nombres de los archivos.

(31 Aug 2020 23:26)jmoreno99 escribió:  ¿Esta previsto subir la parte dos de la tercera temporada con audio en castellano? Gracias @Nandoranks88

Pues lo subiré en unos días.

Y perdón por la tardanza en contestar que llevo un tiempo a tope con el trabajo y la uni.
27 Oct 2020, 06:05
Mensaje: #9

RE: Ataque a los Titanes - Temporada 3

No me pude terminar de ver la segunda temporada bien, porque a mitad de la descarga no volvía a descargar más. Espero que no suceda con esta también, muchas gracias por el aporte!
27 Oct 2020, 08:00
Mensaje: #10

RE: Ataque a los Titanes - Temporada 3

Esta temporada es única con 2 super episodios que muchas series querrían para ellas Guiño
Thanks por un gran trabajo!



Usuario(s) navegando en este tema: 1 invitado(s)