¡Hola, Invitado! (Iniciar sesiónRegístrate)
Hora: 18 Sep 2020, 17:13
¿Sabías que haciendo una donación única o suscribiéndote en Patreon puedes hacerte VIP para navegar sin publicidad y obtener acceso al tracker privado con DVDs/BDs?

 
Calificación:
  • 0 votos - 0 Media
  • 1
  • 2
  • 3
  • 4
  • 5

Neko Hiki no Oruorane

15 Jul 2020, 21:35
Mensaje: #1

Neko Hiki no Oruorane

Luego de que su orquesta se disolviese, un joven muchacho se encuentra con Orurorane, un anciano misterioso, el cual posee la habilidad de componer música con sus mascotas gatunas. Conmovido por su música y las palabras del anciano, el joven se vuelve amigo de este extraño sujeto y desea poder tocar junto a él para poder llevar alegría a otras personas.


22 Aug 2020, 19:40
Mensaje: #2

RE: Neko Hiki no Oruorane

valla que curiosa ova o película interesante
26 Aug 2020, 08:31
Mensaje: #3

RE: Neko Hiki no Oruorane

Se agradece que te hayas tomado la molestia de subir esto al foro, pero por desgracia incumple una de las normas del foro, que es la siguiente: "No se permite subir animes que han sido comprimidos usando --bitrate en vez de --crf si el fansub ha trabajado dicho anime después del año 2013". Y los subtítulos no cumplen con los estándares de calidad de la página.

MediaInfo:
Mostrar
[SCnF] Orurorane the Cat Player.mkv
Format : Matroska
Format version : Version 2
File size : 258 MiB
Duration : 30 min 8 s
Overall bit rate : 1 195 kb/s
Encoded date : UTC 2018-07-18 21:34:18
Writing application : mkvmerge v5.7.0 ('The Whirlwind') built on Jul 8 2012 20:08:51
Writing library : libebml v1.2.3 + libmatroska v1.3.0
Attachments : ClubTypeMercuriusMedium.ttf / corbelb.ttf / corbelz.ttf / FOT-ManyoKoinStd-B.ttf

Video
ID : 1
Format : AVC
Format/Info : Advanced Video Codec
Format profile : High@L3.2
Format settings : CABAC / 16 Ref Frames
Format settings, CABAC : Yes
Format settings, Reference : 16 frames
Muxing mode : Header stripping
Codec ID : V_MPEG4/ISO/AVC
Duration : 30 min 8 s
Bit rate : 1 000 kb/s
Width : 640 pixels
Height : 480 pixels
Display aspect ratio : 4:3
Frame rate mode : Constant
Frame rate : 23.976 (24000/1001) FPS
Color space : YUV
Chroma subsampling : 4:2:0
Bit depth : 8 bits
Scan type : Progressive
Bits/(Pixel*Frame) : 0.136
Stream size : 211 MiB (82Loco
Writing library : x264 core 148 r2694bm 3b70645
Encoding settings : cabac=1 / ref=16 / deblock=1:1:1 / analyse=0x3:0x133 / me=tesa / subme=11 / psy=1 / psy_rd=0.40:0.00 / mixed_ref=1 / me_range=24 / chroma_me=1 / trellis=2 / 8x8dct=1 / cqm=0 / deadzone=21,11 / fast_pskip=0 / chroma_qp_offset=-2 / threads=15 / lookahead_threads=3 / sliced_threads=0 / nr=0 / decimate=1 / interlaced=0 / bluray_compat=0 / constrained_intra=0 / bframes=16 / b_pyramid=2 / b_adapt=2 / b_bias=0 / direct=3 / weightb=1 / open_gop=0 / weightp=2 / keyint=250 / keyint_min=23 / scenecut=40 / intra_refresh=0 / rc_lookahead=60 / rc=2pass / mbtree=1 / bitrate=1000 / ratetol=1.0 / qcomp=0.60 / qpmin=0 / qpmax=69 / qpstep=4 / cplxblur=20.0 / qblur=0.5 / ip_ratio=1.40 / aq=1:0.60
Default : Yes
Forced : No
Statistics Tags Issue : mkvmerge v7.8.0 ('River Man') 32bit built on Mar 27 2015 16:18:02 2018-07-11 19:43:18 / mkvmerge v5.7.0 ('The Whirlwind') built on Jul 8 2012 20:08:51 2018-07-18 21:34:18
FromStats_BitRate : 998407
FromStats_Duration : 00:30:08.640000000
FromStats_FrameCount : 43364
FromStats_StreamSize : 225720012

Audio
ID : 2
Format : MPEG Audio
Format version : Version 1
Format profile : Layer 3
Format settings : Joint stereo / MS Stereo
Muxing mode : Header stripping
Codec ID : A_MPEG/L3
Codec ID/Hint : MP3
Duration : 30 min 8 s
Bit rate mode : Constant
Bit rate : 192 kb/s
Channel(s) : 2 channels
Sampling rate : 48.0 kHz
Compression mode : Lossy
Stream size : 41.4 MiB (16Loco
Language : Japanese
Default : Yes
Forced : No
Statistics Tags Issue : mkvmerge v7.8.0 ('River Man') 32bit built on Mar 27 2015 16:18:02 2018-07-11 19:43:18 / mkvmerge v5.7.0 ('The Whirlwind') built on Jul 8 2012 20:08:51 2018-07-18 21:34:18
FromStats_BitRate : 192000
FromStats_Duration : 00:30:08.592000000
FromStats_FrameCount : 75358
FromStats_StreamSize : 43406208

Text #1
ID : 3
Format : ASS
Codec ID : S_TEXT/ASS
Codec ID/Info : Advanced Sub Station Alpha
Compression mode : Lossless
Language : Spanish
Default : Yes
Forced : No

Text #2
ID : 4
Format : UTF-8
Codec ID : S_TEXT/UTF8
Codec ID/Info : UTF-8 Plain Text
Language : Spanish
Default : No
Forced : No

Text #3
ID : 5
Format : ASS
Codec ID : S_TEXT/ASS
Codec ID/Info : Advanced Sub Station Alpha
Compression mode : Lossless
Language : English
Default : No
Forced : No
Statistics Tags Issue : mkvmerge v7.8.0 ('River Man') 32bit built on Mar 27 2015 16:18:02 2018-07-11 19:43:18 / mkvmerge v5.7.0 ('The Whirlwind') built on Jul 8 2012 20:08:51 2018-07-18 21:34:18
FromStats_BitRate : 46
FromStats_Duration : 00:29:05.020000000
FromStats_FrameCount : 174
FromStats_StreamSize : 10126

Menu
00:00:00.000 : en:Prologue
00:01:29.900 : en:Movement 1
00:06:19.900 : en:Movement 2
00:09:46.520 : en:Movement 3
00:12:19.300 : en:Movement 4
00:17:22.970 : en:Movement 5
00:22:58.180 : en:Movement 6
00:24:07.000 : en:Movement 7
00:24:51.010 : en:Final Movement
00:27:52.190 : en:End Credits

Muevo el tema a la papelera.


Usuario(s) navegando en este tema: 1 invitado(s)