¡Hola, Invitado! (Iniciar sesiónRegístrate)
Hora: 03 Aug 2020, 10:27
¿Sabías que haciendo una donación única o suscribiéndote en Patreon puedes hacerte VIP para navegar sin publicidad y obtener acceso al tracker privado con DVDs/BDs?

Read or Die OVA

31 Jul 2020, 16:29 (Este mensaje fue modificado por última vez en: 31 Jul 2020 16:30 por Nasa)
Mensaje: #1

Read or Die OVA

Completo Read or Die OVA

Título original: R.O.D OVA
Fansub: Fansubber
Público: Seinen
Ambientación: Presente
Género: Acción, Shojo-ai
3
Duración: 33 Min/Ep
2001-2002
Video: 720x540 H.264
Contenedor: MKVSoftsubs
Audio:
Servidor:
Solo los usuarios registrados pueden descargar por torrent
Archivos Torrent:[mostrar archivos]
[Fansubber]_ROD2001_-_01v2_[86693E73].mkv736,54 MB
[Fansubber]_ROD2001_-_02v2_[839A9B67].mkv752,74 MB
[Fansubber]_ROD2001_-_03v2_[EE2F7019].mkv853,14 MB

Otros Fansubs:AnimeHD Mangalords
Yomiko Redman es una profesora sustituta que encaja perfectamente con el apelativo “rata de biblioteca”. Su casa está repleta de libros y pasa sus ratos libres a la caza de nuevos volúmenes para su colección. Lo que muy pocos saben es que en realidad detrás de esa aburrida fachada se encuentra una agente secreta ala servicio de la División de Operaciones Especiales de la Biblioteca Real Británica. Bajo el nombre código de “papel”, Yomiko utiliza su papel de controlar el papel a su voluntad para recuperar antiguos manuscritos y luchar contra las fuerzas del mal. Cuando el libro que esconde la clave de la “Sinfonía de la muerte” de Beethoven que puede desencadenar el Apocalipsis es robado, Papel y otros dos agentes, Drake y Miss Deep, son enviados a recuperarlo en un intento desesperado por evitar el fin del mundo.


Media Info:
Mostrar
x3 Audios castellanos AC-3
x1 Audio inglés AC-3
x2 Audio japonés AC-3 + FLAC


General
Unique ID : 246962829015029247580731206994630150769 (0xB9CB4F8DA4D087819E687CD654260A71)
Complete name : [Fansubber]_ROD2001_-_03v2_[EE2F7019].mkv
Format : Matroska
Format version : Version 2
File size : 853 MiB
Duration : 37mn 1s
Overall bit rate mode : Variable
Overall bit rate : 3 222 Kbps
Encoded date : UTC 2020-03-27 03:19:40
Writing application : mkvmerge v5.0.1 ('Es ist Sommer') built on Oct 9 2011 11:55:43
Writing library : libebml v1.2.2 + libmatroska v1.3.0
Attachements : Arial_0.ttf / arialbd.ttf / ariali.ttf / ariblk.ttf / hootrg__.ttf

Video
ID : 1
Format : AVC
Format/Info : Advanced Video Codec
Format profile : High 10@L4
Format settings, CABAC : Yes
Format settings, ReFrames : 16 frames
Muxing mode : Header stripping
Codec ID : V_MPEG4/ISO/AVC
Duration : 37mn 1s
Width : 720 pixels
Height : 540 pixels
Display aspect ratio : 4:3
Frame rate mode : Constant
Frame rate : 29.970 fps
Color space : YUV
Chroma subsampling : 4:2:0
Bit depth : 10 bits
Scan type : Progressive
Writing library : x264 core 152 r2851 ba24899
Encoding settings : cabac=1 / ref=16 / deblock=1:-1:-1 / analyse=0x3:0x113 / me=umh / subme=10 / psy=1 / psy_rd=0.60:0.20 / mixed_ref=1 / me_range=32 / chroma_me=1 / trellis=2 / 8x8dct=1 / cqm=0 / deadzone=21,11 / fast_pskip=0 / chroma_qp_offset=-3 / threads=6 / lookahead_threads=1 / sliced_threads=0 / nr=0 / decimate=0 / interlaced=0 / bluray_compat=0 / constrained_intra=0 / bframes=16 / b_pyramid=2 / b_adapt=2 / b_bias=0 / direct=3 / weightb=1 / open_gop=0 / weightp=2 / keyint=250 / keyint_min=25 / scenecut=40 / intra_refresh=0 / rc_lookahead=60 / rc=crf / mbtree=1 / crf=17.0 / qcomp=0.70 / qpmin=0 / qpmax=81 / qpstep=4 / ip_ratio=1.40 / aq=1:1.10
Default : Yes
Forced : No
Color range : Limited
Matrix coefficients : BT.601

Audio #1
ID : 2
Format : AC-3
Format/Info : Audio Coding 3
Mode extension : CM (complete main)
Format settings, Endianness : Big
Muxing mode : Header stripping
Codec ID : A_AC3
Duration : 37mn 1s
Bit rate mode : Constant
Bit rate : 192 Kbps
Channel(s) : 2 channels
Channel positions : Front: L R
Sampling rate : 48.0 KHz
Bit depth : 16 bits
Compression mode : Lossy
Stream size : 50.8 MiB (6Loco
Language : Spanish
Default : Yes
Forced : No

Audio #2
ID : 3
Format : AC-3
Format/Info : Audio Coding 3
Mode extension : CM (complete main)
Format settings, Endianness : Big
Muxing mode : Header stripping
Codec ID : A_AC3
Duration : 37mn 1s
Bit rate mode : Constant
Bit rate : 192 Kbps
Channel(s) : 2 channels
Channel positions : Front: L R
Sampling rate : 48.0 KHz
Bit depth : 16 bits
Compression mode : Lossy
Stream size : 50.8 MiB (6Loco
Language : Spanish
Default : No
Forced : No

Audio #3
ID : 4
Format : AC-3
Format/Info : Audio Coding 3
Mode extension : CM (complete main)
Format settings, Endianness : Big
Muxing mode : Header stripping
Codec ID : A_AC3
Duration : 37mn 1s
Bit rate mode : Constant
Bit rate : 448 Kbps
Channel(s) : 6 channels
Channel positions : Front: L C R, Side: L R, LFE
Sampling rate : 48.0 KHz
Bit depth : 16 bits
Compression mode : Lossy
Stream size : 119 MiB (14Loco
Language : Spanish
Default : No
Forced : No

Audio #4
ID : 5
Format : AC-3
Format/Info : Audio Coding 3
Mode extension : CM (complete main)
Format settings, Endianness : Big
Muxing mode : Header stripping
Codec ID : A_AC3
Duration : 37mn 1s
Bit rate mode : Constant
Bit rate : 448 Kbps
Channel(s) : 6 channels
Channel positions : Front: L C R, Side: L R, LFE
Sampling rate : 48.0 KHz
Bit depth : 16 bits
Compression mode : Lossy
Delay relative to video : 16ms
Stream size : 119 MiB (14Loco
Language : English
Default : No
Forced : No

Audio #5
ID : 6
Format : AC-3
Format/Info : Audio Coding 3
Mode extension : CM (complete main)
Format settings, Endianness : Big
Muxing mode : Header stripping
Codec ID : A_AC3
Duration : 37mn 1s
Bit rate mode : Constant
Bit rate : 448 Kbps
Channel(s) : 6 channels
Channel positions : Front: L C R, Side: L R, LFE
Sampling rate : 48.0 KHz
Bit depth : 16 bits
Compression mode : Lossy
Delay relative to video : 16ms
Stream size : 119 MiB (14Loco
Language : Japanese
Default : No
Forced : No

Audio #6
ID : 7
Format : FLAC
Format/Info : Free Lossless Audio Codec
Codec ID : A_FLAC
Duration : 37mn 1s
Bit rate mode : Variable
Channel(s) : 2 channels
Sampling rate : 48.0 KHz
Bit depth : 16 bits
Writing library : libFLAC 1.2.1 (UTC 2007-09-17)
Language : Japanese
Default : No
Forced : No

Text #1
ID : 8
Format : UTF-8
Codec ID : S_TEXT/UTF8
Codec ID/Info : UTF-8 Plain Text
Language : Spanish
Default : No
Forced : No

Text #2
ID : 9
Format : VobSub
Muxing mode : zlib
Codec ID : S_VOBSUB
Codec ID/Info : Picture based subtitle format used on DVDs
Title : DVD
Language : English
Default : No
Forced : No

Text #3
ID : 10
Format : ASS
Codec ID : S_TEXT/ASS
Codec ID/Info : Advanced Sub Station Alpha
Compression mode : Lossless
Title : KAA
Language : English
Default : No
Forced : No

Text #4
ID : 11
Format : ASS
Codec ID : S_TEXT/ASS
Codec ID/Info : Advanced Sub Station Alpha
Compression mode : Lossless
Title : AHQ
Language : English
Default : No
Forced : No

Menu
00:00:00.000 : en:Intro
00:01:25.361 : en:OP
00:02:55.451 : en:Part A
00:16:51.891 : en:Part B
00:33:37.231 : en:ED
31 Jul 2020, 22:23
Mensaje: #2

RE: Read or Die OVA

Como siempre otro gran trabajo, muchas gracias por el aporte, espero que te anime hacer la serie.
01 Aug 2020, 01:20
Mensaje: #3

RE: Read or Die OVA

Excelente, estos OVA son geniales, muchas gracias por compartirlos.
Ayer, 09:57
Mensaje: #4

RE: Read or Die OVA

Ojala hagan la serie completa también, no la encuentro con audio castellano o subs por ninguna parte



Usuario(s) navegando en este tema: 1 invitado(s)