¡Hola, Invitado! (Iniciar sesiónRegístrate)
Hora: 02 Mar 2021, 08:01
¿Sabías que haciendo una donación única o suscribiéndote en Patreon puedes hacerte VIP para navegar sin publicidad y obtener acceso al tracker privado con DVDs/BDs?

Laberinto de Historias

21 Feb 2021, 13:17 (Este mensaje fue modificado por última vez en: 22 Feb 2021 19:01 por Shin Gouki)
Mensaje: #1

Laberinto de Historias

Completo Laberinto de Historias

Título original: Manie-Manie: Meikyuu Monogatari
Fansub: ?
Público: Seinen
Ambientación: Post-Apocalíptico
Género: Drama
Obra original: Mayumura Taku
Dirección: Kawajiri Yoshiaki, Ootomo Katsuhiro, Rintarou
Diseño de personajes: Fukushima Atsuko, Kawajiri Yoshiaki, Ootomo Katsuhiro
Banda sonora: Mickie Yoshino
3
Duración: 16min./ep.
1989
Video: 1920x1036 HEVC
Contenedor: MKVSoftsubs
Audio:
Servidor:
Solo los usuarios registrados pueden descargar por torrent
Archivos Torrent:[mostrar archivos]
Neo Tokyo (Manie-Manie- Meikyuu Monogatari) (1989) [1080p 10bit x265 HEVC Cast-Jpn-Eng 2CH Es-Eng-Fre Sub].mkv1,23 GB

Esta película es el vehículo usado para traernos 3 cortos de animación basados en las historias cortas escritas por el novelista de ciencia ficción Taku Mayumura: "Laberinto Labyrinthos" (guión y dirección de Taro Rin), "El corredor" (guión, dirección y diseño de personajes de Yoshiaki Kawajiri) y "Orden de parar la construcción" (guión, dirección y diseño de personajes de Katsuhiro Otomo). Imágenes complicadas y magníficas para maníacos.

Neo Tokyo está constituido por tres historias diferentes de unos 20 minutos que nos trasladan a la pesadilla de la realidad y al subconsciente humano. En esta cinta se mezclan carreras de coches, historias surrealistas y luchas por la naturaleza. Basta con leer el nombre de los autores para saberse ante un clásico.



Mediainfo:
Mostrar
General
Unique ID : 8059953309811876213340797908692282688 (0x6104A610636FD9895D6059BD480AD40)
Complete name : C:\Neo Tokyo (Manie-Manie- Meikyuu Monogatari) (1989) [1080p 10bit x265 HEVC Cast-Jpn-Eng 2CH Es-Eng-Fre Sub].mkv
Format : Matroska
Format version : Version 4
File size : 1.23 GiB
Duration : 49 min 41 s
Overall bit rate : 3 551 kb/s
Movie name : [DashWatson] Neo Tokyo (Manie-Manie- Meikyuu Monogatari) (1989) [1080p 10bit x265 HEVC Cast-Jpn-Eng 2CH Es-Eng-Fre Sub]
Encoded date : UTC 2021-02-20 21:07:13
Writing application : mkvmerge v53.0.0 ('Fool's Gold') 64-bit
Writing library : libebml v1.4.1 + libmatroska v1.6.2
Attachments : GillSansStd-Light.otf / HelveticaNeueLTCom-Hv.ttf / HelveticaNeueLTCom-HvIt.ttf / SIMSUN.TTF / TRIL____.TTF / Walkway Black RevOblique.ttf / arial.ttf / arialbd.ttf / BRLNSR.TTF / Convergence-Regular.ttf / KRONIKA.ttf / pastel crayon.otf / TRIL____.TTF / Walkway Black RevOblique.ttf

Video
ID : 1
Format : HEVC
Format/Info : High Efficiency Video Coding
Format profile : Main 10@L4@Main
Codec ID : V_MPEGH/ISO/HEVC
Duration : 49 min 40 s
Bit rate : 3 010 kb/s
Width : 1 920 pixels
Height : 1 036 pixels
Display aspect ratio : 1.85:1
Frame rate mode : Constant
Frame rate : 23.976 (24000/1001) FPS
Color space : YUV
Chroma subsampling : 4:2:0
Bit depth : 10 bits
Bits/(Pixel*Frame) : 0.063
Stream size : 1.04 GiB (85Loco
Title : Neo Tokyo (Manie-Manie- Meikyuu Monogatari)
Writing library : x265 2.6+42-52782aeb2081:[Windows][GCC 7.3.0][64 bit] 10bit
Encoding settings : cpuid=1050111 / frame-threads=3 / numa-pools=8 / wpp / no-pmode / no-pme / no-psnr / no-ssim / log-level=2 / input-csp=1 / input-res=1920x1036 / interlace=0 / total-frames=0 / level-idc=0 / high-tier=1 / uhd-bd=0 / ref=4 / no-allow-non-conformance / no-repeat-headers / annexb / no-aud / no-hrd / info / hash=0 / no-temporal-layers / open-gop / min-keyint=23 / keyint=250 / gop-lookahead=0 / bframes=4 / b-adapt=2 / b-pyramid / bframe-bias=0 / rc-lookahead=25 / lookahead-slices=4 / scenecut=40 / radl=0 / no-intra-refresh / ctu=64 / min-cu-size=8 / rect / no-amp / max-tu-size=32 / tu-inter-depth=1 / tu-intra-depth=1 / limit-tu=0 / rdoq-level=2 / dynamic-rd=0.00 / no-ssim-rd / signhide / no-tskip / nr-intra=0 / nr-inter=0 / no-constrained-intra / strong-intra-smoothing / max-merge=3 / limit-refs=3 / limit-modes / me=3 / subme=3 / merange=57 / temporal-mvp / weightp / no-weightb / no-analyze-src-pics / deblock=0:0 / sao / no-sao-non-deblock / rd=4 / no-early-skip / rskip / no-fast-intra / no-tskip-fast / no-cu-lossless / no-b-intra / no-splitrd-skip / rdpenalty=0 / psy-rd=2.00 / psy-rdoq=1.00 / no-rd-refine / no-lossless / cbqpoffs=0 / crqpoffs=0 / rc=crf / crf=22.5 / qcomp=0.60 / qpstep=4 / stats-write=0 / stats-read=0 / ipratio=1.40 / pbratio=1.30 / aq-mode=1 / aq-strength=1.15 / cutree / zone-count=0 / no-strict-cbr / qg-size=32 / no-rc-grain / qpmax=69 / qpmin=0 / no-const-vbv / sar=0 / overscan=0 / videoformat=5 / range=0 / colorprim=2 / transfer=2 / colormatrix=1 / chromaloc=0 / display-window=0 / max-cll=0,0 / min-luma=0 / max-luma=1023 / log2-max-poc-lsb=8 / vui-timing-info / vui-hrd-info / slices=1 / no-opt-qp-pps / no-opt-ref-list-length-pps / no-multi-pass-opt-rps / scenecut-bias=0.05 / no-opt-cu-delta-qp / no-aq-motion / no-hdr / no-hdr-opt / no-dhdr10-opt / analysis-reuse-level=5 / scale-factor=0 / refine-intra=0 / refine-inter=0 / refine-mv=0 / no-limit-sao / ctu-info=0 / no-lowpass-dct / refine-mv-type=0 / copy-pic=1
Language : Japanese
Default : Yes
Forced : Yes
Color range : Limited
Matrix coefficients : BT.709

Audio #1
ID : 2
Format : AAC LC
Format/Info : Advanced Audio Codec Low Complexity
Codec ID : A_AAC-2
Duration : 49 min 40 s
Bit rate : 141 kb/s
Channel(s) : 2 channels
Channel layout : L R
Sampling rate : 48.0 kHz
Frame rate : 46.875 FPS (1024 SPF)
Compression mode : Lossy
Delay relative to video : 9 ms
Stream size : 50.0 MiB (4Loco
Title : Japonés - Stereo
Language : Japanese
Default : Yes
Forced : Yes

Audio #2
ID : 3
Format : AAC LC
Format/Info : Advanced Audio Codec Low Complexity
Codec ID : A_AAC-2
Duration : 49 min 41 s
Bit rate : 277 kb/s
Channel(s) : 2 channels
Channel layout : L R
Sampling rate : 48.0 kHz
Frame rate : 46.875 FPS (1024 SPF)
Compression mode : Lossy
Delay relative to video : 33 ms
Stream size : 98.4 MiB (8Loco
Title : Castellano - Stereo
Language : Spanish
Default : No
Forced : No

Audio #3
ID : 4
Format : Opus
Codec ID : A_OPUS
Duration : 49 min 40 s
Bit rate : 84.7 kb/s
Channel(s) : 2 channels
Channel layout : L R
Sampling rate : 48.0 kHz
Frame rate : 50.002 FPS (960 SPF)
Compression mode : Lossy
Delay relative to video : 700 ms
Stream size : 30.1 MiB (2Loco
Title : Inglés - Stereo
Language : English
Default : No
Forced : No

Text #1
ID : 5
Format : ASS
Codec ID : S_TEXT/ASS
Codec ID/Info : Advanced Sub Station Alpha
Duration : 47 min 3 s
Bit rate : 420 b/s
Count of elements : 1598
Compression mode : Lossless
Stream size : 145 KiB (0Loco
Title : Español
Language : Spanish
Default : Yes
Forced : Yes

Text #2
ID : 6
Format : ASS
Codec ID : S_TEXT/ASS
Codec ID/Info : Advanced Sub Station Alpha
Duration : 46 min 55 s
Bit rate : 51 b/s
Count of elements : 271
Compression mode : Lossless
Stream size : 17.8 KiB (0Loco
Title : [A-FanRips] English
Language : English
Default : No
Forced : No

Text #3
ID : 7
Format : ASS
Codec ID : S_TEXT/ASS
Codec ID/Info : Advanced Sub Station Alpha
Duration : 42 min 39 s
Bit rate : 47 b/s
Count of elements : 215
Compression mode : Lossless
Stream size : 14.8 KiB (0Loco
Title : [Cervoz] French
Language : French
Default : No
Forced : No

Menu
00:00:00.000 : es:El laberinto.
00:11:42.467 : es:El piloto de carreras.
00:26:26.000 : es:Trabajos de construcción suspendidos.

Nota informativa:
Mostrar
* NOTA: Posee también subtítulos en Francés .ass (no está disponible para seleccionarlo/marcarlo en la página de creación del torrent).



Usuario(s) navegando en este tema: 1 invitado(s)