¡Hola, Invitado! (Iniciar sesiónRegístrate)
Hora: 17 Sep 2019, 06:12

Nodame Cantabile: Paris-hen

29 Nov 2013, 16:57
Mensaje: #11

RE: Nodame Cantabile Pari-hen

muchas gracias
03 Dec 2013, 04:31
Mensaje: #12

RE: Nodame Cantabile Pari-hen

Gracias por esta serie
17 Nov 2014, 04:04
Mensaje: #13

RE: Nodame Cantabile Pari-hen

Me llevo la segunda de esta gran serie, se agradece.
30 Nov 2014, 03:02
Mensaje: #14

RE: Nodame Cantabile Pari-hen

Dejo enlaces para mi esta es la mejor de las tres Sacar lengua
26 Feb 2016, 01:00 (Este mensaje fue modificado por última vez en: 27 Feb 2016 17:56 por romel)
Mensaje: #15

RE: Nodame Cantabile Paris Hen

Cita:Descargando;
2016/02/25:
* MEGA = solo 3 vivos (08, 10, Especial Purigorota)
* SolidFiles y 1ficher = Vivos

Muchísimas gracias por la serie!

Descargado, la dejaré compartiendo - tanto como pueda!
27 Jun 2016, 19:37
Mensaje: #16

RE: Nodame Cantabile Paris Hen

Los enlaces de mega que dejó VìcR funcionan perfectamente.
14 Jan 2017, 19:42
Mensaje: #17

RE: Nodame Cantabile Paris Hen

En los videos no cuentan con los subtítulos, alguien cuenta con ellos para pegárselos,.
14 Jan 2017, 20:21
Mensaje: #18

RE: Nodame Cantabile Paris Hen

(14 Jan 2017 19:42)SANTOLO escribió:  En los videos no cuentan con los subtítulos, alguien cuenta con ellos para pegárselos,.

Sólo debería ser uno de ellos - el .mp4, el resto los MKV tienen los subtítulos dentro del archivo.

Con cuál reproductor de vídeo / multimedia estás viéndolos?
VLC te sirve, Media Player Classic - Home Cinema también de debe de servir - ambos tienen ya codecs de audio y video para reproducirlos bien.

Media Player Classic - Home Cinema:
Mostrar

También puedes optar por instalar un "CodecPack".

Media info de Rakuen_Nodame_Cantabile_Pari-hen_01_HDTV_6FAB8C58.mkv:
Mostrar
General
Unique ID : 226271367382076369514985449994253695659 (0xAA3A47BB2D8D18EC8C26646E2ACEFAAB)
Complete name : J:\_Shits\_ANIME\Nodame Cantabile Pari-hen\[Rakuen]_Nodame_Cantabile_Pari-hen_01_HDTV_[6FAB8C58].mkv
Format : Matroska
Format version : Version 1
File size : 170 MiB
Duration : 22 min 34 s
Overall bit rate : 1 055 kb/s
Encoded date : UTC 2008-10-16 17:05:24
Writing application : mkvmerge v2.0.2 ('You're My Flame') built on Feb 21 2007 23:40:55
Writing library : libebml v0.7.7 + libmatroska v0.8.1
Attachments : arial.ttf / KENYC___.TTF / STEINEM_.ttf / tef260.ttf

ID : 1
Format : AVC
Format/Info : Advanced Video Codec
Format profile : High@L5.1
Format settings, CABAC : Yes
Format settings, ReFrames : 5 frames
Codec ID : V_MPEG4/ISO/AVC
Duration : 22 min 34 s
Nominal bit rate : 936 kb/s
Width : 1 280 pixels
Height : 720 pixels
Display aspect ratio : 16:9
Frame rate mode : Constant
Frame rate : 23.976 FPS
Color space : YUV
Chroma subsampling : 4:2:0
Bit depth : 8 bits
Scan type : Progressive
Bits/(Pixel*Frame) : 0.042
Title : Pista de video
Writing library : x264 core 58
Encoding settings : cabac=1 / ref=5 / deblock=1:0:0 / analyse=0x3:0x133 / me=esa / subme=6 / me-prepass=0 / brdo=0 / mixed_ref=0 / me_range=16 / chroma_me=1 / trellis=2 / 8x8dct=1 / cqm=0 / deadzone=21,11 / chroma_qp_offset=0 / threads=6 / nr=0 / decimate=1 / mbaff=0 / bframes=3 / b_pyramid=0 / b_adapt=1 / b_bias=0 / direct=2 / wpredb=0 / bime=0 / keyint=250 / keyint_min=25 / scenecut=40(pre) / rc=2pass / bitrate=936 / ratetol=1.0 / rceq='blurCplx^(1-qComp)' / qcomp=1.00 / qpmin=10 / qpmax=51 / qpstep=4 / cplxblur=20.0 / qblur=0.5 / ip_ratio=1.40 / pb_ratio=1.30 / aq=1:0.5:13.0
Language : Japanese
Default : Yes
Forced : No

ID : 2
Format : AAC
Format/Info : Advanced Audio Codec
Format profile : LC
Codec ID : A_AAC
Duration : 22 min 34 s
Channel(s) : 2 channels
Channel positions : Front: L R
Sampling rate : 48.0 kHz
Frame rate : 46.875 FPS (1024 spf)
Compression mode : Lossy
Title : Pista de audio
Language : Japanese
Default : Yes
Forced : No


Text
ID : 3
Format : SSA
Codec ID : S_TEXT/SSA
Codec ID/Info : Sub Station Alpha
Compression mode : Lossless
Title : Pista de subtitulos
Language : Spanish
Default : Yes
Forced : No


Media Info de Rakuen_Nodame_Cantabile_-_Special_Lesson_DVD_68187C4B.mp4:
Mostrar
General
Complete name : J:\_Shits\_ANIME\Nodame Cantabile Pari-hen\[Rakuen]_Nodame_Cantabile_-_Special_Lesson_DVD_[68187C4B].mp4
Format : MPEG-4
Format profile : Base Media
Codec ID : isom (isom/avc1)
File size : 120 MiB
Duration : 14 min 11 s
Overall bit rate mode : Variable
Overall bit rate : 1 182 kb/s
Encoded date : UTC 2008-05-03 20:37:30
Tagged date : UTC 2008-05-03 20:37:30

Video
ID : 1
Format : AVC
Format/Info : Advanced Video Codec
Format profile : High@L4.1
Format settings, CABAC : Yes
Format settings, ReFrames : 5 frames
Codec ID : avc1
Codec ID/Info : Advanced Video Coding
Duration : 14 min 11 s
Bit rate : 1 066 kb/s
Maximum bit rate : 14.2 Mb/s
Width : 1 024 pixels
Height : 576 pixels
Display aspect ratio : 16:9
Frame rate mode : Constant
Frame rate : 23.976 (24000/1001) FPS
Original frame rate : 23.976 (23976/1000) FPS
Color space : YUV
Chroma subsampling : 4:2:0
Bit depth : 8 bits
Scan type : Progressive
Bits/(Pixel*Frame) : 0.075
Stream size : 108 MiB (90Loco
Writing library : x264 core 58
Encoding settings : cabac=1 / ref=5 / deblock=1:0:0 / analyse=0x3:0x133 / me=esa / subme=6 / me-prepass=0 / brdo=0 / mixed_ref=0 / me_range=16 / chroma_me=1 / trellis=2 / 8x8dct=1 / cqm=0 / deadzone=21,11 / chroma_qp_offset=0 / threads=6 / nr=0 / decimate=1 / mbaff=0 / bframes=3 / b_pyramid=0 / b_adapt=1 / b_bias=0 / direct=2 / wpredb=0 / bime=0 / keyint=250 / keyint_min=25 / scenecut=40(pre) / rc=2pass / bitrate=1066 / ratetol=1.0 / rceq='blurCplx^(1-qComp)' / qcomp=1.00 / qpmin=10 / qpmax=51 / qpstep=4 / cplxblur=20.0 / qblur=0.5 / ip_ratio=1.40 / pb_ratio=1.30 / aq=1:0.5:13.0
Encoded date : UTC 2008-05-03 20:37:30
Tagged date : UTC 2008-05-03 20:37:50

Audio
ID : 2
Format : AAC
Format/Info : Advanced Audio Codec
Format profile : LC
Codec ID : 40
Duration : 14 min 11 s
Bit rate mode : Variable
Bit rate : 112 kb/s
Maximum bit rate : 172 kb/s
Channel(s) : 2 channels
Channel positions : Front: L R
Sampling rate : 48.0 kHz
Frame rate : 46.875 FPS (1024 spf)
Compression mode : Lossy
Stream size : 11.4 MiB (9Loco
Encoded date : UTC 2008-05-03 20:37:46
Tagged date : UTC 2008-05-03 20:37:50
14 Jan 2017, 20:40
Mensaje: #19

RE: Nodame Cantabile Paris Hen

(14 Jan 2017 20:21)romel escribió:  
(14 Jan 2017 19:42)SANTOLO escribió:  En los videos no cuentan con los subtítulos, alguien cuenta con ellos para pegárselos,.

Sólo debería ser uno de ellos - el .mp4, el resto los MKV tienen los subtítulos dentro del archivo.

Con cuál reproductor de vídeo / multimedia estás viéndolos?
VLC te sirve, Media Player Classic - Home Cinema también de debe de servir - ambos tienen ya codecs de audio y video para reproducirlos bien.

Media Player Classic - Home Cinema:
Mostrar

También puedes optar por instalar un "CodecPack".

Media info de Rakuen_Nodame_Cantabile_Pari-hen_01_HDTV_6FAB8C58.mkv:
Mostrar
General
Unique ID : 226271367382076369514985449994253695659 (0xAA3A47BB2D8D18EC8C26646E2ACEFAAB)
Complete name : J:\_Shits\_ANIME\Nodame Cantabile Pari-hen\[Rakuen]_Nodame_Cantabile_Pari-hen_01_HDTV_[6FAB8C58].mkv
Format : Matroska
Format version : Version 1
File size : 170 MiB
Duration : 22 min 34 s
Overall bit rate : 1 055 kb/s
Encoded date : UTC 2008-10-16 17:05:24
Writing application : mkvmerge v2.0.2 ('You're My Flame') built on Feb 21 2007 23:40:55
Writing library : libebml v0.7.7 + libmatroska v0.8.1
Attachments : arial.ttf / KENYC___.TTF / STEINEM_.ttf / tef260.ttf

ID : 1
Format : AVC
Format/Info : Advanced Video Codec
Format profile : High@L5.1
Format settings, CABAC : Yes
Format settings, ReFrames : 5 frames
Codec ID : V_MPEG4/ISO/AVC
Duration : 22 min 34 s
Nominal bit rate : 936 kb/s
Width : 1 280 pixels
Height : 720 pixels
Display aspect ratio : 16:9
Frame rate mode : Constant
Frame rate : 23.976 FPS
Color space : YUV
Chroma subsampling : 4:2:0
Bit depth : 8 bits
Scan type : Progressive
Bits/(Pixel*Frame) : 0.042
Title : Pista de video
Writing library : x264 core 58
Encoding settings : cabac=1 / ref=5 / deblock=1:0:0 / analyse=0x3:0x133 / me=esa / subme=6 / me-prepass=0 / brdo=0 / mixed_ref=0 / me_range=16 / chroma_me=1 / trellis=2 / 8x8dct=1 / cqm=0 / deadzone=21,11 / chroma_qp_offset=0 / threads=6 / nr=0 / decimate=1 / mbaff=0 / bframes=3 / b_pyramid=0 / b_adapt=1 / b_bias=0 / direct=2 / wpredb=0 / bime=0 / keyint=250 / keyint_min=25 / scenecut=40(pre) / rc=2pass / bitrate=936 / ratetol=1.0 / rceq='blurCplx^(1-qComp)' / qcomp=1.00 / qpmin=10 / qpmax=51 / qpstep=4 / cplxblur=20.0 / qblur=0.5 / ip_ratio=1.40 / pb_ratio=1.30 / aq=1:0.5:13.0
Language : Japanese
Default : Yes
Forced : No

ID : 2
Format : AAC
Format/Info : Advanced Audio Codec
Format profile : LC
Codec ID : A_AAC
Duration : 22 min 34 s
Channel(s) : 2 channels
Channel positions : Front: L R
Sampling rate : 48.0 kHz
Frame rate : 46.875 FPS (1024 spf)
Compression mode : Lossy
Title : Pista de audio
Language : Japanese
Default : Yes
Forced : No


Text
ID : 3
Format : SSA
Codec ID : S_TEXT/SSA
Codec ID/Info : Sub Station Alpha
Compression mode : Lossless
Title : Pista de subtitulos
Language : Spanish
Default : Yes
Forced : No


Media Info de Rakuen_Nodame_Cantabile_-_Special_Lesson_DVD_68187C4B.mp4:
Mostrar
General
Complete name : J:\_Shits\_ANIME\Nodame Cantabile Pari-hen\[Rakuen]_Nodame_Cantabile_-_Special_Lesson_DVD_[68187C4B].mp4
Format : MPEG-4
Format profile : Base Media
Codec ID : isom (isom/avc1)
File size : 120 MiB
Duration : 14 min 11 s
Overall bit rate mode : Variable
Overall bit rate : 1 182 kb/s
Encoded date : UTC 2008-05-03 20:37:30
Tagged date : UTC 2008-05-03 20:37:30

Video
ID : 1
Format : AVC
Format/Info : Advanced Video Codec
Format profile : High@L4.1
Format settings, CABAC : Yes
Format settings, ReFrames : 5 frames
Codec ID : avc1
Codec ID/Info : Advanced Video Coding
Duration : 14 min 11 s
Bit rate : 1 066 kb/s
Maximum bit rate : 14.2 Mb/s
Width : 1 024 pixels
Height : 576 pixels
Display aspect ratio : 16:9
Frame rate mode : Constant
Frame rate : 23.976 (24000/1001) FPS
Original frame rate : 23.976 (23976/1000) FPS
Color space : YUV
Chroma subsampling : 4:2:0
Bit depth : 8 bits
Scan type : Progressive
Bits/(Pixel*Frame) : 0.075
Stream size : 108 MiB (90Loco
Writing library : x264 core 58
Encoding settings : cabac=1 / ref=5 / deblock=1:0:0 / analyse=0x3:0x133 / me=esa / subme=6 / me-prepass=0 / brdo=0 / mixed_ref=0 / me_range=16 / chroma_me=1 / trellis=2 / 8x8dct=1 / cqm=0 / deadzone=21,11 / chroma_qp_offset=0 / threads=6 / nr=0 / decimate=1 / mbaff=0 / bframes=3 / b_pyramid=0 / b_adapt=1 / b_bias=0 / direct=2 / wpredb=0 / bime=0 / keyint=250 / keyint_min=25 / scenecut=40(pre) / rc=2pass / bitrate=1066 / ratetol=1.0 / rceq='blurCplx^(1-qComp)' / qcomp=1.00 / qpmin=10 / qpmax=51 / qpstep=4 / cplxblur=20.0 / qblur=0.5 / ip_ratio=1.40 / pb_ratio=1.30 / aq=1:0.5:13.0
Encoded date : UTC 2008-05-03 20:37:30
Tagged date : UTC 2008-05-03 20:37:50

Audio
ID : 2
Format : AAC
Format/Info : Advanced Audio Codec
Format profile : LC
Codec ID : 40
Duration : 14 min 11 s
Bit rate mode : Variable
Bit rate : 112 kb/s
Maximum bit rate : 172 kb/s
Channel(s) : 2 channels
Channel positions : Front: L R
Sampling rate : 48.0 kHz
Frame rate : 46.875 FPS (1024 spf)
Compression mode : Lossy
Stream size : 11.4 MiB (9Loco
Encoded date : UTC 2008-05-03 20:37:46
Tagged date : UTC 2008-05-03 20:37:50





Reproduzco en la aplicación de windows Fotos y Videos. He reproducido otros archivos como este y no he tenido problemas. Es la primera vez es por eso que se me hizo raro que no aparecieran los subtítulos, de igual manera los descargue por mega y me salieron igual el video sin sub.
14 Jan 2017, 21:35
Mensaje: #20

RE: Nodame Cantabile Paris Hen

@SANTOLO, el container MKV permite tener más que sólo audio(S) y Video, también puede contener varios subs... Sólo es que el Windows Media Player no puede.

Te repito, puedes usar las opciones que te comenté.
Los reproductores que pegué arriba - coloqué unas distribuciones "Portables", así que puedes borrarlos con solo borrar la carpeta... Pero pueden reproducir los videos con sus contenidos.



Usuario(s) navegando en este tema: 1 invitado(s)