<?xml version="1.0" standalone="no"?>
<!DOCTYPE svg PUBLIC "-//W3C//DTD SVG 1.1//EN" "http://www.w3.org/Graphics/SVG/1.1/DTD/svg11.dtd" >
<svg xmlns="http://www.w3.org/2000/svg">
<metadata>
This is a custom SVG webfont generated by Font Squirrel.
Copyright   : Copyright  1988 1990 1993 2003 Linotype Library GmbH wwwlinotypecom All rights reserved Copyright  1988 1990 1993 Adobe Systems Incorporated All Rights Reserved
</metadata>
<defs>
<font id="webfont35uePHbN" horiz-adv-x="983" >
<font-face units-per-em="2048" ascent="1462" descent="-586" />
<missing-glyph horiz-adv-x="491" />
<glyph unicode=" "  horiz-adv-x="491" />
<glyph unicode="&#x09;" horiz-adv-x="491" />
<glyph unicode="&#xa0;" horiz-adv-x="491" />
<glyph unicode="!" horiz-adv-x="606" d="M162 270h282v-270h-282v270zM406 408h-205l-39 579v475h282v-475z" />
<glyph unicode="&#x22;" horiz-adv-x="948" d="M147 805v657h254v-657h-254zM547 805v657h254v-657h-254z" />
<glyph unicode="#" d="M408 836l-31 -250h198l33 250h-200zM0 356v230h178l33 250h-150v229h177l45 356h196l-43 -356h199l45 356h199l-45 -356h149v-229h-176l-33 -250h150v-230h-176l-46 -356h-198l45 356h-201l-43 -356h-199l46 356h-152z" />
<glyph unicode="$" d="M420 -207v178q-244 20 -328 142q-74 106 -74 278v43h283q0 -113 24.5 -170t94.5 -76v414l-103 37q-281 102 -280 393q0 184 98 291t285 127v141h131v-141q379 -35 379 -387v-29h-283q-4 170 -96 199v-387l162 -66q127 -55 190 -133q61 -78 62 -237q0 -215 -101.5 -319.5 t-312.5 -119.5v-178h-131zM420 905v328q-100 -27 -101 -156q1 -115 101 -172zM551 551v-363q119 27 119 164.5t-119 198.5z" />
<glyph unicode="%" horiz-adv-x="1593" d="M287 -63l831 1548h182l-831 -1548h-182zM272 1067q0 -141 17.5 -192.5t73 -51.5t73 51.5t17.5 192.5q0 129 -17.5 178t-73 49t-73 -49t-17.5 -178zM117 758q-61 90 -61.5 301t61.5 301q66 90 245 90q182 0 244 -90q63 -88 63.5 -301t-63.5 -301q-61 -90 -244 -90 q-179 0 -245 90zM985 61q-61 90 -61 301t61 302q66 90 246 90q182 0 244 -90q63 -88 63 -301t-63 -302q-61 -90 -244 -90q-180 0 -246 90zM1141 371q0 -141 17.5 -192.5t72.5 -51.5t72.5 51t17.5 193q0 129 -17.5 178t-72.5 49t-72.5 -49t-17.5 -178z" />
<glyph unicode="&#x26;" horiz-adv-x="1214" d="M653 778l219 -297q51 104 52 221h254q0 -221 -150 -432l193 -270h-314l-82 113q-121 -141 -352 -142q-260 0 -364 150q-84 131 -84 272q0 233 294 422l-51 76q-57 84 -77.5 139t-20.5 125q0 139 103.5 223t269.5 84q176 0 270 -83t94 -222q0 -109 -59.5 -197t-194.5 -182 zM702 293l-245 348q-82 -66 -116 -122t-34 -126q0 -78 57.5 -135t147.5 -57q116 0 190 92zM412 1163q0 -61 73 -159l35 -50l53 45q92 78 93 160q0 59 -36 91t-93 32q-55 0 -90 -32t-35 -87z" />
<glyph unicode="'" horiz-adv-x="532" d="M139 805v657h254v-657h-254z" />
<glyph unicode="(" horiz-adv-x="606" d="M389 1462h217q-129 -240 -180 -446q-53 -217 -53 -473q0 -258 53 -475q49 -203 180 -445h-217q-287 455 -287 919.5t287 919.5z" />
<glyph unicode=")" horiz-adv-x="606" d="M0 1462h217q287 -455 287 -919.5t-287 -919.5h-217q131 242 180 445q53 217 53 475q0 256 -53 473q-51 206 -180 446z" />
<glyph unicode="*" horiz-adv-x="798" d="M315 1462h168v-262l250 82l51 -160l-249 -82l155 -213l-137 -98l-154 213l-153 -213l-137 98l155 213l-250 82l52 160l249 -82v262z" />
<glyph unicode="+" horiz-adv-x="1228" d="M487 0v391h-391v254h391v391h254v-391h392v-254h-392v-391h-254z" />
<glyph unicode="," horiz-adv-x="491" d="M111 319h270v-266q0 -186 -60.5 -280.5t-209.5 -110.5v143q49 10 77.5 55.5t28.5 106.5v33h-106v319z" />
<glyph unicode="-" horiz-adv-x="757" d="M90 713h578v-242h-578v242z" />
<glyph unicode="." horiz-adv-x="491" d="M111 319h270v-319h-270v319z" />
<glyph unicode="/" horiz-adv-x="679" d="M-6 -29l463 1520h229l-463 -1520h-229z" />
<glyph unicode="0" d="M37 676q0 125 2 170q2 68 12 158q18 150 80 266q94 180 361 180q260 0 356 -158q98 -158 98 -547q0 -125 -2 -172q-2 -66 -12 -155q-18 -150 -80 -266q-94 -180 -360 -181q-260 0 -359 156q-96 158 -96 549zM332 770v-158q0 -274 33 -360q33 -88 127 -88q96 0 126 100 q33 98 33 387v158q0 274 -33 360q-33 88 -127 88t-129 -102q-30 -102 -30 -385z" />
<glyph unicode="1" d="M668 0h-295v1024h-289v193h27q295 0 340 233h217v-1450z" />
<glyph unicode="2" d="M930 229v-229h-893q0 186 74.5 332.5t244.5 302.5l119 110q94 82 123 148q29 70 29 184q0 180 -144 180q-66 0 -104.5 -39.5t-50.5 -99.5q-8 -47 -9 -143h-282v55q0 420 450 420q215 0 325 -101.5t110 -293.5q0 -141 -51.5 -245.5t-174.5 -215.5l-164 -152 q-123 -113 -149 -213h547z" />
<glyph unicode="3" d="M41 424h283q2 -141 36.5 -200.5t124.5 -59.5q92 0 127 57.5t35 175.5q0 123 -43 185.5t-147 62.5h-99v193h97q82 0 125 63.5t43 165.5t-34 146t-108 44q-84 0 -116.5 -56t-32.5 -179h-271q0 428 426 428q418 0 418 -373q0 -129 -58.5 -213t-162.5 -106v-4 q258 -43 258 -342q0 -166 -90 -293q-104 -147 -391 -148q-205 0 -312.5 116t-107.5 331v6z" />
<glyph unicode="4" d="M29 301v242l481 907h305v-920h139v-229h-139v-301h-270v301h-516zM545 530v551h-4l-283 -551h287z" />
<glyph unicode="5" d="M870 1421v-229h-534l-31 -330h4q80 109 266 109q131 0 214 -71t112 -168t29 -224q0 -260 -103 -399q-100 -137 -362 -138q-106 0 -186 27t-125 67.5t-73 97t-36 106.5t-8 106v39h282q0 -238 144 -238q172 0 172 283q0 178 -36 242.5t-134 64.5q-123 0 -139 -133h-265 l54 788h755z" />
<glyph unicode="6" d="M338 451q0 -150 35 -218.5t127 -68.5t125.5 67.5t33.5 219.5q0 147 -36.5 210.5t-122.5 63.5q-88 0 -125 -63.5t-37 -210.5zM920 1081h-283q0 176 -133 176q-113 0 -150 -106q-31 -90 -30 -262v-72h4q82 125 272 125q178 0 266 -118.5t88 -334.5q0 -518 -469 -518 q-326 0 -413 287q-43 154 -43 391v135q4 51 6 129q4 80 12 125q35 162 68 213q70 109 145 146q113 53 256 53q174 0 287 -88q113 -86 117 -281z" />
<glyph unicode="7" d="M45 1421h893v-225q-176 -248 -281 -557q-104 -303 -145 -639h-309q80 655 452 1167h-610v254z" />
<glyph unicode="8" d="M491.5 664q-167.5 0 -167.5 -250t167.5 -250t167.5 250t-167.5 250zM348 1059q0 -203 143.5 -203t143.5 203q0 199 -143.5 199t-143.5 -199zM29 410q0 143 64.5 238t180.5 120v4q-102 25 -155 102.5t-53 176.5q0 399 426 399t426 -399q0 -96 -54.5 -175t-154.5 -104v-4 q117 -25 181 -120t64 -238q4 -203 -127 -332q-115 -106 -335 -107q-309 0 -416 213q-47 103 -47 226z" />
<glyph unicode="9" d="M324 971q0 -147 36.5 -211t122.5 -64q88 0 125 63.5t37 211.5q0 150 -35 218t-127 68t-125.5 -67t-33.5 -219zM63 338h283q0 -174 133 -174q113 0 150 106q31 90 30 262v70h-4q-82 -123 -272 -123q-178 0 -266 119t-88 334q0 518 469 518q330 -8 411 -289 q45 -141 45 -389q0 -92 -2 -123q0 -25 -4 -119q-4 -82 -10 -114q-20 -145 -49 -201q-63 -147 -189 -201q-84 -43 -233 -43q-184 0 -292 89.5t-112 277.5z" />
<glyph unicode=":" horiz-adv-x="491" d="M111 748v319h270v-319h-270zM111 0v319h270v-319h-270z" />
<glyph unicode="&#x3c;" horiz-adv-x="1228" d="M96 410v217l1037 426v-254l-693 -281l693 -280v-254z" />
<glyph unicode="=" horiz-adv-x="1228" d="M96 168v254h1037v-254h-1037zM96 614v254h1037v-254h-1037z" />
<glyph unicode="&#x3e;" horiz-adv-x="1228" d="M96 -16v254l692 280l-692 281v254l1037 -426v-217z" />
<glyph unicode="?" horiz-adv-x="985" d="M332 270h282v-270h-282v270zM344 1010h-270v47q0 195 106.5 308.5t298.5 113.5q209 0 320.5 -104.5t111.5 -291.5q0 -172 -129 -319l-82 -92q-57 -63 -78.5 -112.5t-21.5 -123.5v-30h-254v79q0 98 28.5 169t98.5 153l78 88q78 88 78 217q0 82 -36 128t-104 46 q-145 0 -145 -225v-51z" />
<glyph unicode="@" horiz-adv-x="1638" d="M1069 999l27 109h180l-119 -512q-12 -59 -12 -84q0 -41 41 -41q70 0 141 102q72 106 72 254q0 201 -164 336q-162 135 -381 135q-236 0 -401 -172q-164 -174 -164 -397q0 -233 172 -399t407 -166q227 0 445 131h182q-231 -324 -676 -324q-315 0 -538 222 q-221 225 -222 538q0 315 222 537q223 223 538 223q317 0 537 -174q223 -172 223 -447q-2 -180 -81 -309t-195 -194q-133 -82 -238 -82q-123 0 -133 108h-4q-104 -109 -246 -108q-117 0 -209 96q-90 96 -90 252q0 199 123 350q123 154 315 154q166 -1 248 -138zM612 668 q0 -70 42 -118t104 -48q100 0 168 82q70 82 69 180q0 66 -45 111t-108 45q-94 0 -162 -82q-68 -80 -68 -170z" />
<glyph unicode="A" horiz-adv-x="1138" d="M567 1208l-141 -657h287l-142 657h-4zM0 0l387 1462h365l387 -1462h-308l-67 309h-389l-68 -309h-307z" />
<glyph unicode="B" horiz-adv-x="1138" d="M397 657v-440h115q119 0 178.5 51t59.5 170q0 219 -226 219h-127zM397 1245v-383h84q125 0 180.5 44t55.5 149q0 102 -50.5 146t-162.5 44h-107zM102 0v1462h494q416 0 416 -370q0 -123 -56.5 -206t-164.5 -114v-4q125 -16 195.5 -105.5t70.5 -234.5q0 -188 -109 -309 q-106 -119 -348 -119h-498z" />
<glyph unicode="C" horiz-adv-x="1099" d="M1022 969h-295q0 166 -39 235.5t-137 69.5q-109 0 -148 -123q-37 -119 -36 -440q0 -217 21.5 -333t59 -153t107.5 -37q92 0 137 76q47 78 47 295h295q0 -258 -88 -412q-98 -176 -377 -176q-195 6 -301 79t-149 222q-47 168 -47 459q0 162 8 252q8 94 39 205 q31 102 84 166q121 137 366 137q115 0 205 -34t137 -87q43 -45 72 -127q39 -116 39 -274z" />
<glyph unicode="D" horiz-adv-x="1175" d="M412 1245v-1028h131q150 0 196 109q49 111 49 417q0 258 -43 373q-45 129 -208 129h-125zM117 0v1462h483q295 0 395 -196q88 -170 88 -514q0 -401 -108 -578q-106 -174 -393 -174h-465z" />
<glyph unicode="E" horiz-adv-x="985" d="M102 1462h818v-241h-523v-344h492v-242h-492v-393h543v-242h-838v1462z" />
<glyph unicode="F" horiz-adv-x="948" d="M102 0v1462h818v-241h-523v-344h492v-242h-492v-635h-295z" />
<glyph unicode="G" horiz-adv-x="1138" d="M1034 1028h-282q0 94 -43 170q-39 76 -125 76q-106 0 -153.5 -119t-47.5 -393q0 -305 44 -439.5t159 -134.5q66 0 123 62q59 66 59 172v149h-195v217h478v-788h-217v135h-5q-102 -164 -307 -164q-262 0 -354 201q-80 186 -80 576q0 383 109 563q111 180 383 180 q454 0 454 -463z" />
<glyph unicode="H" horiz-adv-x="1138" d="M102 0v1462h295v-559h344v559h295v-1462h-295v649h-344v-649h-295z" />
<glyph unicode="I" horiz-adv-x="528" d="M412 0h-295v1462h295v-1462z" />
<glyph unicode="J" horiz-adv-x="948" d="M563 1462h295v-1052q0 -229 -106.5 -334t-333.5 -105q-207 0 -297 111t-90 317v64h270v-45q0 -125 28.5 -177.5t102.5 -52.5t102.5 52.5t28.5 177.5v1044z" />
<glyph unicode="K" horiz-adv-x="1099" d="M102 1462h295v-585h4l373 585h320l-398 -626l443 -836h-332l-301 600l-109 -166v-434h-295v1462z" />
<glyph unicode="L" horiz-adv-x="948" d="M920 0h-818v1462h295v-1220h523v-242z" />
<glyph unicode="M" horiz-adv-x="1515" d="M109 0v1462h438l209 -1032h4l211 1032h436v-1462h-270v1167h-4l-261 -1167h-229l-260 1167h-4v-1167h-270z" />
<glyph unicode="N" horiz-adv-x="1175" d="M102 1462h340l357 -1001h4v1001h270v-1462h-336l-360 1024h-4v-1024h-271v1462z" />
<glyph unicode="O" horiz-adv-x="1138" d="M80 479q-8 90 -8 252t8 252q8 94 39 205q31 104 84 165.5t145 98.5q90 39 221 39t222 -39q94 -37 145 -98q102 -117 121 -371q10 -113 10 -252t-10 -252q-10 -109 -39 -207q-29 -102 -82 -163.5t-145 -100.5q-92 -37 -221.5 -37t-221.5 37q-94 41 -145 101 q-96 108 -123 370zM367 731q0 -313 39 -428q41 -115 163.5 -115t163.5 115q39 115 39 428q0 311 -39 426q-41 117 -164 117t-163 -117q-39 -115 -39 -426z" />
<glyph unicode="P" horiz-adv-x="1062" d="M397 1245v-444h131q92 0 144.5 56t52.5 163q0 225 -205 225h-123zM102 0v1462h516q209 0 305.5 -127t96.5 -311q0 -217 -122 -328.5t-343 -111.5h-158v-584h-295z" />
<glyph unicode="Q" horiz-adv-x="1138" d="M367 731q0 -313 39 -428q41 -115 163.5 -115t163.5 115q39 115 39 428q0 311 -39 426q-41 117 -164 117t-163 -117q-39 -115 -39 -426zM1112 -23l-174 -157l-174 180q-51 -16 -90 -23q-47 -6 -105 -6q-246 0 -366 138q-96 109 -123 370q-8 90 -8 252t8 252 q27 262 123 371q121 137 366.5 137t366.5 -137q102 -117 121 -371q10 -113 10 -252q0 -227 -23.5 -364.5t-89.5 -229.5z" />
<glyph unicode="R" horiz-adv-x="1138" d="M102 0v1462h545q186 0 287.5 -96t101.5 -281q0 -307 -243 -360v-4q143 -18 186 -111q45 -88 49 -336q2 -131 15.5 -185t50.5 -77v-12h-320q-33 43 -37 154l-8 280q-8 184 -174 184h-158v-618h-295zM397 1245v-422h123q221 0 221 219q0 203 -204 203h-140z" />
<glyph unicode="S" horiz-adv-x="1062" d="M45 457h295v-43q0 -117 44 -171.5t151 -54.5q76 0 126 48.5t50 132.5q0 94 -56 147q-51 49 -206 102q-207 70 -295 169.5t-88 273.5q0 209 117.5 319.5t334.5 110.5q215 0 334 -98.5t119 -294.5v-41h-283q0 217 -160 217q-168 0 -168 -170q0 -74 33 -118t119 -81l227 -98 q162 -72 219 -160q59 -88 60 -227q0 -449 -508 -449q-240 0 -352.5 106.5t-112.5 319.5v60z" />
<glyph unicode="T" d="M25 1462h933v-241h-319v-1221h-295v1221h-319v241z" />
<glyph unicode="U" horiz-adv-x="1101" d="M84 1462h295v-1020q0 -127 39 -190.5t133 -63.5t133 63.5t39 190.5v1020h295v-1020q0 -133 -38 -228t-105.5 -146.5t-147.5 -74t-176 -22.5q-199 0 -322 88q-145 102 -145 383v1020z" />
<glyph unicode="V" horiz-adv-x="1062" d="M6 1462h316l206 -1081h7l217 1081h305l-336 -1462h-379z" />
<glyph unicode="W" horiz-adv-x="1556" d="M283 0l-267 1462h283l162 -1081h4l172 1081h283l172 -1081h4l161 1081h283l-266 -1462h-330l-164 1061h-4l-164 -1061h-329z" />
<glyph unicode="X" horiz-adv-x="1099" d="M377 739l-336 723h326l188 -473l186 473h322l-340 -723l364 -739h-331l-211 496l-209 -496h-324z" />
<glyph unicode="Y" horiz-adv-x="1064" d="M6 1462h332l192 -565h5l204 565h320l-379 -887v-575h-295v575z" />
<glyph unicode="Z" horiz-adv-x="985" d="M49 0v215l539 1006h-502v241h842v-223l-547 -997h555v-242h-887z" />
<glyph unicode="[" horiz-adv-x="645" d="M164 -377v1839h469v-205h-215v-1429h215v-205h-469z" />
<glyph unicode="\" horiz-adv-x="679" d="M457 -29l-463 1520h229l463 -1520h-229z" />
<glyph unicode="]" horiz-adv-x="645" d="M12 -377v205h215v1429h-215v205h469v-1839h-469z" />
<glyph unicode="^" horiz-adv-x="1228" d="M369 633h-254l385 788h229l385 -788h-254l-246 506z" />
<glyph unicode="_" horiz-adv-x="1024" d="M1024 -256h-1024v102h1024v-102z" />
<glyph unicode="`" horiz-adv-x="454" d="M360 1233h-192l-201 295h283z" />
<glyph unicode="a" horiz-adv-x="985" d="M346 764h-254v27q0 172 103.5 255.5t283.5 83.5q233 0 316 -86q84 -84 84 -251v-580q0 -125 34 -213h-270q-20 37 -35 115h-4q-47 -82 -109.5 -113t-170.5 -31q-137 0 -201 95q-66 96 -66 221q0 152 62.5 227.5t216.5 116.5l160 43q63 16 87.5 45t24.5 84q0 135 -131 135 t-131 -143v-31zM608 334v217q-49 -39 -121 -55q-160 -35 -159 -179q0 -70 27.5 -111.5t78.5 -41.5q72 0 123 45t51 125z" />
<glyph unicode="b" horiz-adv-x="1024" d="M94 0v1462h283v-463h4q88 131 237 131q174 0 256 -138t82 -441t-81.5 -441.5t-256.5 -138.5q-160 0 -249 146h-4v-117h-271zM408 827q-31 -82 -31 -276q0 -193 31 -279q31 -84 118.5 -84t116.5 84q31 86 31 279q0 195 -31 276q-29 86 -117 86q-87 0 -118 -86z" />
<glyph unicode="c" horiz-adv-x="948" d="M895 705h-270q0 221 -127 221q-96 0 -129 -82t-33 -295q0 -219 31.5 -302t119.5 -83q72 0 105 61.5t33 196.5h270q0 -225 -101.5 -338t-318.5 -113q-221 0 -321 129q-100 127 -101 451q0 317 115 448q117 131 332 131q190 0 292.5 -111t102.5 -314z" />
<glyph unicode="d" horiz-adv-x="1024" d="M659 0v117h-4q-90 -145 -249 -146q-174 0 -256 138.5t-82 441.5t81.5 441t256.5 138q150 0 237 -131h4v463h283v-1462h-271zM379 827q-29 -86 -29 -276q0 -188 29 -279q31 -84 119 -84t118 84q31 86 31 279q0 195 -31 276q-31 86 -118.5 86t-118.5 -86z" />
<glyph unicode="e" horiz-adv-x="948" d="M895 508h-559v-88q0 -256 139 -256q68 0 102.5 48t47.5 159h254q-14 -399 -400 -400q-162 0 -264 68q-76 51 -123 174q-33 86 -37 227q-2 33 -2 121q0 199 43 328q27 76 76 127q109 115 320 114q231 0 317 -141q86 -137 86 -418v-63zM336 676h289q-4 145 -34 203.5 t-110 58.5q-145 0 -145 -219v-43z" />
<glyph unicode="f" horiz-adv-x="606" d="M156 0v909h-144v193h144v125q0 139 72.5 201.5t222.5 62.5q74 0 151 -6v-201q-6 2 -29 2h-26q-59 0 -84 -20.5t-25 -67.5v-96h164v-193h-164v-909h-282z" />
<glyph unicode="g" horiz-adv-x="1024" d="M354 516q0 -141 32 -214t110 -73q84 0 118.5 79t34.5 237q0 207 -31.5 287.5t-115.5 80.5q-90 0 -119 -84q-29 -86 -29 -313zM649 1102h271v-1047q0 -225 -109 -328.5t-350 -103.5q-180 0 -277.5 77t-97.5 218h270q0 -53 43 -84q47 -31 95 -31q156 0 155 199v145h-4 q-96 -135 -235 -135q-174 0 -256 132t-82 425q0 219 57 375q76 186 289 186q154 0 227 -151h4v123z" />
<glyph unicode="h" horiz-adv-x="1024" d="M94 0v1462h283v-473h4q82 141 268 141q281 0 281 -313v-817h-283v760q0 84 -28.5 118.5t-92.5 34.5q-150 0 -149 -182v-731h-283z" />
<glyph unicode="i" horiz-adv-x="491" d="M104 1237v242h283v-242h-283zM104 0v1102h283v-1102h-283z" />
<glyph unicode="j" horiz-adv-x="491" d="M104 1237v242h283v-242h-283zM104 20v1082h283v-1178q0 -152 -72.5 -218t-251.5 -66q-4 0 -114 4v204q16 -4 22 -4h23q70 0 90 36t20 140z" />
<glyph unicode="k" horiz-adv-x="1024" d="M104 1462h283v-772h4l285 412h311l-317 -434l364 -668h-311l-236 453l-100 -131v-322h-283v1462z" />
<glyph unicode="l" horiz-adv-x="491" d="M104 0v1462h283v-1462h-283z" />
<glyph unicode="m" horiz-adv-x="1552" d="M94 0v1102h271v-113h4q102 141 278 141q207 0 254 -176h4q66 176 279 176q274 0 274 -329v-801h-282v770q0 143 -111 143q-147 0 -147 -188v-725h-283v770q0 143 -111 143q-147 0 -147 -188v-725h-283z" />
<glyph unicode="n" horiz-adv-x="1024" d="M94 0v1102h271v-129h4q86 158 280 157q281 0 281 -313v-817h-283v760q0 84 -28.5 118.5t-92.5 34.5q-150 0 -149 -182v-731h-283z" />
<glyph unicode="o" d="M57 551q0 299 102.5 439t332.5 140h14q231 0 323 -137q96 -139 97 -442q0 -299 -102.5 -439.5t-331.5 -140.5h-15q-231 0 -323 138q-97 139 -97 442zM492 164q84 0 117.5 88t33.5 299t-34 299t-117 88q-102 0 -130 -113q-23 -92 -22 -274q0 -178 22 -277 q28 -110 130 -110z" />
<glyph unicode="p" horiz-adv-x="1024" d="M94 -360v1462h271v-117h4q90 145 249 145q174 0 256 -138t82 -441t-81.5 -441.5t-256.5 -138.5q-150 0 -237 131h-4v-462h-283zM408 827q-31 -82 -31 -276q0 -193 31 -279q31 -84 118.5 -84t116.5 84q31 86 31 279q0 195 -31 276q-29 86 -117 86q-87 0 -118 -86z" />
<glyph unicode="q" horiz-adv-x="1024" d="M647 -360v462h-4q-88 -131 -237 -131q-174 0 -256 138.5t-82 441.5t81.5 441t256.5 138q160 0 249 -145h4v117h271v-1462h-283zM616 272q31 86 31 279q0 195 -31 276q-31 86 -118.5 86t-118.5 -86q-29 -86 -29 -276q0 -188 29 -279q31 -84 118.5 -84t118.5 84z" />
<glyph unicode="r" horiz-adv-x="681" d="M94 0v1102h271v-148h4q96 176 254 176q6 0 51 -4v-270q-82 4 -88 4q-92 0 -150.5 -50t-58.5 -148v-662h-283z" />
<glyph unicode="s" horiz-adv-x="909" d="M47 360h254v-36q0 -76 38 -118t110 -42q143 0 143 131q0 84 -103 125l-198 72q-236 82 -236 307q0 152 103.5 241.5t302.5 89.5q377 0 377 -313v-45h-254q0 86 -29 126t-96 40q-59 0 -96 -32t-37 -87q0 -90 123 -129l169 -57q133 -45 188.5 -118t55.5 -198 q0 -164 -110.5 -255t-298.5 -91q-221 0 -313.5 86t-92.5 265v38z" />
<glyph unicode="t" horiz-adv-x="606" d="M156 1102v315h282v-315h164v-193h-164v-596q0 -70 20.5 -95t80.5 -25q14 0 63 4v-197q-127 -12 -184 -12q-160 0 -213 59q-49 59 -49 232v630h-144v193h144z" />
<glyph unicode="u" horiz-adv-x="1024" d="M659 0v129h-4q-86 -158 -280 -158q-281 0 -281 314v817h283v-760q0 -84 28.5 -119t92.5 -35q150 0 149 183v731h283v-1102h-271z" />
<glyph unicode="v" horiz-adv-x="909" d="M467 313l149 789h283l-276 -1102h-328l-285 1102h295l158 -789h4z" />
<glyph unicode="w" horiz-adv-x="1441" d="M254 0l-240 1102h283l129 -783h4l137 783h307l146 -783h4l133 783h270l-237 -1102h-322l-145 782h-4l-137 -782h-328z" />
<glyph unicode="x" horiz-adv-x="946" d="M473 770l152 332h295l-287 -535l299 -567h-295l-164 360l-164 -360h-295l299 567l-286 535h295z" />
<glyph unicode="y" horiz-adv-x="909" d="M94 -360v210q37 -6 74 -6q139 0 151 156l-309 1102h295l164 -762h4l143 762h283l-266 -1028q-41 -156 -73 -234t-79 -125t-104.5 -61t-167.5 -14h-115z" />
<glyph unicode="z" horiz-adv-x="872" d="M49 0v217l440 655h-419v230h753v-217l-440 -656h440v-229h-774z" />
<glyph unicode="{" horiz-adv-x="645" d="M61 459v168q55 0 95.5 49t40.5 117v395q0 131 54 202.5t159 71.5h182v-205h-62q-80 0 -79 -147v-340q0 -92 -40 -152.5t-108 -72.5v-4q68 -12 108 -72.5t40 -153.5v-340q0 -147 79 -147h62v-205h-182q-104 0 -158.5 72t-54.5 203v395q0 68 -40.5 117t-95.5 49z" />
<glyph unicode="|" horiz-adv-x="454" d="M100 -29v1520h254v-1520h-254z" />
<glyph unicode="}" horiz-adv-x="645" d="M53 -377v205h62q80 0 80 147v340q0 92 39.5 152.5t107.5 73.5v4q-68 12 -107.5 72.5t-39.5 152.5v340q0 147 -80 147h-62v205h183q104 0 158.5 -71.5t54.5 -202.5v-395q0 -68 39.5 -117t95.5 -49v-168q-55 0 -95 -49.5t-40 -116.5v-395q0 -131 -54.5 -203t-158.5 -72 h-183z" />
<glyph unicode="~" horiz-adv-x="1228" d="M1014 715l73 -217q-96 -176 -251 -176q-109 0 -242 69.5t-195 69.5q-53 0 -110 -47q-51 -45 -74 -92l-74 217q96 176 252 176q109 0 223 -60q150 -80 213 -80q55 0 109 48q53 45 76 92z" />
<glyph unicode="&#xa2;" d="M455 -209v180q-88 4 -153.5 31t-121 87.5t-84 174t-28.5 279.5q0 244 69 397q84 170 318 190v156h106v-156q354 -23 354 -417h-270q0 178 -84 213v-750q84 49 84 252h270q0 -211 -85 -322.5t-269 -134.5v-180h-106zM455 176v750q-61 -23 -83 -106t-22 -265q0 -131 2 -170 q2 -55 29 -127q25 -66 74 -82z" />
<glyph unicode="&#xa3;" d="M18 627v168h138q-92 178 -93 290q0 164 115 264.5t324 100.5q436 0 446 -424h-270q0 231 -160 231q-86 0 -129 -44t-43 -117.5t53 -184.5l58 -116h342v-168h-289q10 -35 10 -80q0 -90 -41 -162t-143 -158l8 -4q31 14 92 15q27 0 111 -31q86 -31 123 -31q80 0 213 86 l90 -192q-150 -98 -305 -99q-45 0 -176 37t-197 37q-88 0 -201 -57l-84 176q111 70 175.5 166t64.5 196q0 39 -23 101h-209z" />
<glyph unicode="&#xa5;" d="M365 0v326h-291v168h291v88l-23 47h-268v168h188l-297 624h305l219 -551h5l229 551h295l-297 -624h188v-168h-268l-23 -47v-88h291v-168h-291v-326h-253z" />
<glyph unicode="&#xa8;" horiz-adv-x="454" d="M289 1260v241h229v-241h-229zM-63 1260v241h229v-241h-229z" />
<glyph unicode="&#xa9;" horiz-adv-x="1638" d="M281 193q-221 225 -222 538q0 315 222 537q223 223 538.5 223t536.5 -223q223 -221 223 -536.5t-223 -538.5q-221 -221 -536.5 -221t-538.5 221zM440 1114q-152 -158 -151 -383q0 -223 151 -385q154 -158 379 -158t377 158q154 160 154 385q0 227 -154 383 q-152 160 -377 160t-379 -160zM1014 610h205q-25 -147 -127.5 -233t-241.5 -86q-190 0 -307 127q-117 129 -117 319q0 195 113 320q115 127 305 127q145 0 246.5 -84t119.5 -230h-196q-39 137 -180 138q-102 0 -159 -74t-57 -197q0 -117 58.5 -193.5t154.5 -76.5 q76 0 124.5 38.5t58.5 104.5z" />
<glyph unicode="&#xab;" horiz-adv-x="872" d="M106 426v332l306 246v-271l-162 -141l162 -141v-271zM461 426v332l305 246v-271l-162 -141l162 -141v-271z" />
<glyph unicode="&#xad;" horiz-adv-x="757" d="M90 713h578v-242h-578v242z" />
<glyph unicode="&#xae;" horiz-adv-x="1638" d="M440 1114q-152 -158 -151 -383q0 -223 151 -385q154 -158 379 -158t377 158q154 160 154 385q0 227 -154 383q-152 160 -377 160t-379 -160zM281 193q-221 225 -222 538q0 315 222 537q223 223 538.5 223t536.5 -223q223 -221 223 -536.5t-223 -538.5 q-221 -221 -536.5 -221t-538.5 221zM702 997v-202h138q72 0 104.5 21.5t32.5 80.5q0 100 -156 100h-119zM522 322v819h320q315 0 315 -254q0 -96 -55 -155.5t-148 -72.5l203 -337h-196l-193 329h-66v-329h-180z" />
<glyph unicode="&#xb0;" horiz-adv-x="819" d="M305 1251q-43 -43 -43 -104.5t43 -104.5t104.5 -43t104.5 43t43 104.5t-43 104.5t-104.5 43t-104.5 -43zM194.5 932q-88.5 88 -88.5 215t88.5 215t215.5 88t215 -88t88 -215t-88 -215t-215 -88t-215.5 88z" />
<glyph unicode="&#xb4;" horiz-adv-x="454" d="M94 1233l111 295h282l-200 -295h-193z" />
<glyph unicode="&#xb8;" horiz-adv-x="454" d="M195 0h106l-78 -119q35 10 68 10q76 0 126 -40.5t46 -106.5q0 -90 -66.5 -139t-191.5 -49q-135 0 -205 38l39 95q59 -31 141 -31q43 0 73 18.5t30 49.5q0 61 -90 65q-37 0 -70 -12l-45 41z" />
<glyph unicode="&#xbb;" horiz-adv-x="872" d="M461 180v271l162 141l-162 141v271l305 -246v-332zM106 180v271l162 141l-162 141v271l306 -246v-332z" />
<glyph unicode="&#xd3;" horiz-adv-x="1138" d="M80 479q-8 90 -8 252t8 252q8 94 39 205q31 104 84 165.5t145 98.5q90 39 221 39t222 -39q94 -37 145 -98q102 -117 121 -371q10 -113 10 -252t-10 -252q-10 -109 -39 -207q-29 -102 -82 -163.5t-145 -100.5q-92 -37 -221.5 -37t-221.5 37q-94 41 -145 101 q-96 108 -123 370zM367 731q0 -313 39 -428q41 -115 163.5 -115t163.5 115q39 115 39 428q0 311 -39 426q-41 117 -164 117t-163 -117q-39 -115 -39 -426zM465 1548l110 295h283l-201 -295h-192z" />
<glyph unicode="&#xf3;" d="M57 551q0 299 102.5 439t332.5 140q244 4 337 -137q96 -139 97 -442q0 -299 -102.5 -439.5t-331.5 -140.5q-244 -4 -340 135q-95 140 -95 445zM492 164q84 0 117.5 88t33.5 299t-34 299t-117 88q-102 0 -130 -113q-23 -92 -22 -274q0 -178 22 -277q28 -110 130 -110z M391 1233l111 295h282l-200 -295h-193z" />
<glyph unicode="&#x104;" horiz-adv-x="1138" d="M567 1208l-141 -657h287l-142 657h-4zM0 0l387 1462h365l387 -1462h-308l-67 309h-389l-68 -309h-307zM958 0q-111 -84 -143 -133q-29 -49 -41 -92q-10 -49 -2 -90q14 -82 127 -117q51 -18 242 -19v148q-172 0 -191 6q-16 2 -32 31q-14 23 -9 63q6 39 209 203h-160z" />
<glyph unicode="&#x105;" horiz-adv-x="985" d="M346 764h-254v27q0 172 103.5 255.5t283.5 83.5q233 0 316 -86q84 -84 84 -251v-580q0 -125 34 -213h-270q-20 37 -35 115h-4q-47 -82 -109.5 -113t-170.5 -31q-137 0 -201 95q-66 96 -66 221q0 152 62.5 227.5t216.5 116.5l160 43q63 16 87.5 45t24.5 84q0 135 -131 135 t-131 -143v-31zM608 334v217q-49 -39 -121 -55q-160 -35 -159 -179q0 -70 27.5 -111.5t78.5 -41.5q72 0 123 45t51 125zM756 0q-111 -84 -144 -133q-29 -49 -41 -92q-10 -49 -2 -90q14 -82 127 -117q53 -18 242 -19v148q-172 0 -193 6q-16 2 -32 31q-12 25 -6 63 q6 39 208 203h-159z" />
<glyph unicode="&#x106;" horiz-adv-x="1099" d="M1022 969h-295q0 166 -39 235.5t-137 69.5q-109 0 -148 -123q-37 -119 -36 -440q0 -217 21.5 -333t59 -153t107.5 -37q92 0 137 76q47 78 47 295h295q0 -258 -88 -412q-98 -176 -377 -176q-195 6 -301 79t-149 222q-47 168 -47 459q0 162 8 252q8 94 39 205 q31 102 84 166q121 137 366 137q115 0 205 -34t137 -87q43 -45 72 -127q39 -116 39 -274zM465 1548l110 295h283l-201 -295h-192z" />
<glyph unicode="&#x107;" horiz-adv-x="948" d="M895 705h-270q0 221 -127 221q-96 0 -129 -82t-33 -295q0 -219 31.5 -302t119.5 -83q72 0 105 61.5t33 196.5h270q0 -225 -101.5 -338t-318.5 -113q-221 0 -321 129q-100 127 -101 451q0 317 115 448q117 131 332 131q190 0 292.5 -111t102.5 -314zM391 1233l111 295h282 l-200 -295h-193z" />
<glyph unicode="&#x118;" horiz-adv-x="985" d="M102 1462h818v-241h-523v-344h492v-242h-492v-393h543v-242h-838v1462zM776 0q-109 -84 -141.5 -133t-40.5 -92q-10 -49 -2 -90q14 -82 127 -117q51 -18 242 -19v148q-170 0 -193 6q-16 2 -33 31q-12 25 -6 63q6 39 209 203h-162z" />
<glyph unicode="&#x119;" horiz-adv-x="948" d="M895 508h-559v-88q0 -256 139 -256q68 0 102.5 48t47.5 159h254q-14 -399 -400 -400q-162 0 -264 68q-76 51 -123 174q-33 86 -37 227q-2 33 -2 121q0 199 43 328q27 76 76 127q109 115 320 114q231 0 317 -141q86 -137 86 -418v-63zM336 676h289q-4 145 -34 203.5 t-110 58.5q-145 0 -145 -219v-43zM729 37q-219 -201 -225 -240t6 -63q16 -29 33 -31q18 -6 190 -6v-148q-186 0 -241 19q-49 14 -86 45q-33 29 -41 72q-14 88 43 182q33 49 143 133z" />
<glyph unicode="&#x141;" horiz-adv-x="948" d="M920 0h-818v1462h295v-1220h523v-242zM602 801l-600 -402v297l600 406v-301z" />
<glyph unicode="&#x142;" horiz-adv-x="587" d="M160 0v1462h282v-1462h-282zM580 809l-578 -401v297l578 405v-301z" />
<glyph unicode="&#x143;" horiz-adv-x="1175" d="M102 1462h340l357 -1001h4v1001h270v-1462h-336l-360 1024h-4v-1024h-271v1462zM465 1548l110 295h283l-201 -295h-192z" />
<glyph unicode="&#x144;" horiz-adv-x="1024" d="M94 0v1102h271v-129h4q86 158 280 157q281 0 281 -313v-817h-283v760q0 84 -28.5 118.5t-92.5 34.5q-150 0 -149 -182v-731h-283zM391 1233l111 295h282l-200 -295h-193z" />
<glyph unicode="&#x15a;" horiz-adv-x="1062" d="M45 457h295v-43q0 -117 44 -171.5t151 -54.5q76 0 126 48.5t50 132.5q0 94 -56 147q-51 49 -206 102q-207 70 -295 169.5t-88 273.5q0 209 117.5 319.5t334.5 110.5q215 0 334 -98.5t119 -294.5v-41h-283q0 217 -160 217q-168 0 -168 -170q0 -74 33 -118t119 -81l227 -98 q162 -72 219 -160q59 -88 60 -227q0 -449 -508 -449q-240 0 -352.5 106.5t-112.5 319.5v60zM418 1548l110 295h283l-201 -295h-192z" />
<glyph unicode="&#x15b;" horiz-adv-x="909" d="M47 360h254v-36q0 -76 38 -118t110 -42q143 0 143 131q0 84 -103 125l-198 72q-236 82 -236 307q0 152 103.5 241.5t302.5 89.5q377 0 377 -313v-45h-254q0 86 -29 126t-96 40q-59 0 -96 -32t-37 -87q0 -90 123 -129l169 -57q133 -45 188.5 -118t55.5 -198 q0 -164 -110.5 -255t-298.5 -91q-221 0 -313.5 86t-92.5 265v38zM344 1241l111 295h282l-200 -295h-193z" />
<glyph unicode="&#x179;" horiz-adv-x="985" d="M49 0v215l539 1006h-502v241h842v-223l-547 -997h555v-242h-887zM410 1548l110 295h283l-201 -295h-192z" />
<glyph unicode="&#x17a;" horiz-adv-x="872" d="M49 0v217l440 655h-419v230h753v-217l-440 -656h440v-229h-774zM336 1233l110 295h283l-201 -295h-192z" />
<glyph unicode="&#x17b;" horiz-adv-x="985" d="M49 0v215l539 1006h-502v241h842v-223l-547 -997h555v-242h-887zM451 1741h182v-182h-182v182z" />
<glyph unicode="&#x17c;" horiz-adv-x="872" d="M49 0v217l440 655h-419v230h753v-217l-440 -656h440v-229h-774zM373 1411h182v-180h-182v180z" />
<glyph unicode="&#x2c6;" horiz-adv-x="454" d="M-80 1233l160 295h295l160 -295h-218l-94 174l-98 -174h-205z" />
<glyph unicode="&#x2da;" horiz-adv-x="491" d="M-105 530q-43 -43 -43 -104.5t43 -104.5t104.5 -43t104.5 43t43 104.5t-43 104.5t-104.5 43t-104.5 -43zM-215.5 211q-88.5 88 -88.5 215t88.5 215t215.5 88t215 -88t88 -215t-88 -215t-215 -88t-215.5 88z" />
<glyph unicode="&#x2dc;" horiz-adv-x="454" d="M49 1251h-143q33 254 190 254q59 0 88 -14l99 -43q31 -12 61 -12q25 0 41 23.5t16 49.5h148q-10 -115 -61.5 -184.5t-129.5 -69.5q-43 0 -129 35t-114 35q-50 0 -66 -74z" />
<glyph unicode="&#x2000;" horiz-adv-x="921" />
<glyph unicode="&#x2001;" horiz-adv-x="1843" />
<glyph unicode="&#x2002;" horiz-adv-x="921" />
<glyph unicode="&#x2003;" horiz-adv-x="1843" />
<glyph unicode="&#x2004;" horiz-adv-x="614" />
<glyph unicode="&#x2005;" horiz-adv-x="460" />
<glyph unicode="&#x2006;" horiz-adv-x="307" />
<glyph unicode="&#x2007;" horiz-adv-x="307" />
<glyph unicode="&#x2008;" horiz-adv-x="229" />
<glyph unicode="&#x2009;" horiz-adv-x="368" />
<glyph unicode="&#x200a;" horiz-adv-x="102" />
<glyph unicode="&#x2010;" horiz-adv-x="757" d="M90 713h578v-242h-578v242z" />
<glyph unicode="&#x2011;" horiz-adv-x="757" d="M90 713h578v-242h-578v242z" />
<glyph unicode="&#x2012;" horiz-adv-x="757" d="M90 713h578v-242h-578v242z" />
<glyph unicode="&#x2013;" horiz-adv-x="1024" d="M0 477v230h1024v-230h-1024z" />
<glyph unicode="&#x2014;" horiz-adv-x="2048" d="M0 477v230h2048v-230h-2048z" />
<glyph unicode="&#x2018;" horiz-adv-x="532" d="M131 805v266q0 186 60.5 280.5t209.5 110.5v-143q-49 -10 -77.5 -55t-28.5 -107v-33h106v-319h-270z" />
<glyph unicode="&#x2019;" horiz-adv-x="532" d="M401 1462v-266q0 -186 -60 -280.5t-210 -110.5v143q49 10 78 55.5t29 106.5v33h-107v319h270z" />
<glyph unicode="&#x201a;" horiz-adv-x="532" d="M131 319h270v-266q0 -186 -60 -280.5t-210 -110.5v143q49 10 78 55.5t29 106.5v33h-107v319z" />
<glyph unicode="&#x201c;" horiz-adv-x="948" d="M139 805v266q0 186 60.5 280.5t210.5 110.5v-143q-49 -10 -78 -55t-29 -107v-33h107v-319h-271zM539 805v266q0 186 60 280.5t210 110.5v-143q-49 -10 -78 -55t-29 -107v-33h107v-319h-270z" />
<glyph unicode="&#x201d;" horiz-adv-x="948" d="M539 1143v319h270v-266q0 -186 -60.5 -280.5t-209.5 -110.5v143q49 10 77.5 55.5t28.5 106.5v33h-106zM139 1143v319h271v-266q0 -186 -60.5 -280.5t-210.5 -110.5v143q49 10 78 55.5t29 106.5v33h-107z" />
<glyph unicode="&#x201e;" horiz-adv-x="948" d="M139 0v319h271v-266q0 -186 -60.5 -280.5t-210.5 -110.5v143q49 10 78 55.5t29 106.5v33h-107zM539 0v319h270v-266q0 -186 -60.5 -280.5t-209.5 -110.5v143q49 10 77.5 55.5t28.5 106.5v33h-106z" />
<glyph unicode="&#x2026;" horiz-adv-x="2048" d="M1571 319h270v-319h-270v319zM889 319h270v-319h-270v319zM207 319h270v-319h-270v319z" />
<glyph unicode="&#x202f;" horiz-adv-x="368" />
<glyph unicode="&#x2039;" horiz-adv-x="493" d="M94 426v332l305 246v-271l-161 -141l161 -141v-271z" />
<glyph unicode="&#x203a;" horiz-adv-x="493" d="M94 180v271l162 141l-162 141v271l305 -246v-332z" />
<glyph unicode="&#x205f;" horiz-adv-x="460" />
<glyph unicode="&#x20ac;" d="M981 1354l-94 -205q-98 104 -203 104q-117 0 -160 -100q-27 -57 -35 -201h345l-60 -159h-291v-105h271l-60 -160h-207q6 -166 27 -221q39 -125 156 -125q109 0 264 137v-256q-156 -92 -309 -92q-414 0 -430 557h-142l60 160h77l3 105h-140l62 159h84q43 504 467 504 q182 0 315 -102z" />
<glyph unicode="&#x2122;" horiz-adv-x="2027" d="M293 614v656h-230v192h689v-192h-230v-656h-229zM1724 614v582h-4l-194 -582h-205l-195 582h-4v-582h-217v848h346l170 -512h4l170 512h347v-848h-218z" />
<glyph unicode="&#xe000;" horiz-adv-x="1100" d="M0 1100h1100v-1100h-1100v1100z" />
<glyph unicode="&#xfb01;" horiz-adv-x="1099" d="M156 0v909h-144v193h144v125q0 139 72.5 201.5t222.5 62.5q74 0 151 -6v-201q-6 2 -29 2h-26q-59 0 -84 -20.5t-25 -67.5v-96h164v-193h-164v-909h-282zM713 1237v242h282v-242h-282zM713 0v1102h282v-1102h-282z" />
<glyph unicode="&#xfb02;" horiz-adv-x="1099" d="M156 0v909h-144v193h144v125q0 139 72.5 201.5t222.5 62.5q74 0 151 -6v-201q-6 2 -29 2h-26q-59 0 -84 -20.5t-25 -67.5v-96h164v-193h-164v-909h-282zM713 0v1479h282v-1479h-282z" />
<glyph unicode="&#xfb03;" horiz-adv-x="1703" d="M1317 1237v242h282v-242h-282zM1317 0v1102h282v-1102h-282zM762 0v909h-144v193h144v125q0 139 72.5 201.5t222.5 62.5q74 0 151 -6v-201q-6 2 -28 2h-27q-59 0 -84 -20.5t-25 -67.5v-96h164v-193h-164v-909h-282zM156 0v909h-144v193h144v125q0 139 72.5 201.5 t222.5 62.5q74 0 151 -6v-201q-6 2 -29 2h-26q-59 0 -84 -20.5t-25 -67.5v-96h164v-193h-164v-909h-282z" />
<glyph unicode="&#xfb04;" horiz-adv-x="1703" d="M1317 0v1462h282v-1462h-282zM762 0v909h-144v193h144v125q0 139 72.5 201.5t222.5 62.5q74 0 151 -6v-201q-6 2 -28 2h-27q-59 0 -84 -20.5t-25 -67.5v-96h164v-193h-164v-909h-282zM156 0v909h-144v193h144v125q0 139 72.5 201.5t222.5 62.5q74 0 151 -6v-201 q-6 2 -29 2h-26q-59 0 -84 -20.5t-25 -67.5v-96h164v-193h-164v-909h-282z" />
<glyph horiz-adv-x="681" />
</font>
</defs>
</svg>
