¡Hola, Invitado! (Iniciar sesiónRegístrate)
Hora: 22 Jun 2021, 02:10
¿Sabías que haciendo una donación única o suscribiéndote en Patreon puedes hacerte VIP para navegar sin publicidad y obtener acceso al tracker privado con DVDs/BDs?

No Game No Life

14 Apr 2017, 05:10
Mensaje: #11

RE: No Game No Life

(14 Apr 2017 05:04)Disperso escribió:  Gracias pero mi disco multimedia, que lo lee todo (y mi tele, casi todo), dice(n) que "formato de vídeo no soportado" y se queda en negro, aunque se escucha (en la tele ni eso).
Es h.264 y demás, y en el ordenador se ve perfectamente, por lo que no sé a qué puede deberse...

Es por la profundidad de bits del vídeo. Usa CCCP en la pc y podrás verlo sin problemas.
Dudo que cualquier otra cosa lo reproduzca.
14 Apr 2017, 12:24 (Este mensaje fue modificado por última vez en: 14 Apr 2017 12:26 por Disperso)
Mensaje: #12

RE: No Game No Life

Gracias, me preguntaba cuál podría ser la causa.
Y eso, ¿es así por sistema (de origen... ni idea del tema) o porque se ha ripeado así? Lo pregunto porque no encuentro ninguna versión por internet que "funcione" en la televisión...
14 Apr 2017, 17:36
Mensaje: #13

RE: No Game No Life

@Disperso hoy en día la mayoría fansubs trabajan con el códec H.264 de 10bit por las ventajas que ofrece, acá un poco de información. No es un códec oficial así que es lógico que equipos como televisores o consolas no lo reproduzcan correctamente. En el caso de los ordenadores estos pueden reproducir correctamente vídeos en 10bit hay contar con los códec adecuados. Para poder ver la serie en tu televisor tienes tres opciones, la primera conectar el pc con la tv por medio de un cable HDMI, la segunda es buscar una versión en 8bit que sea compatible con tu equipo y la última sería recomprimir la versión 10bit a 8bit.

Para el ordenador te recomiendo instalar cualquiera de estos tres paquetes de códecs (solo instala uno):
cccp
KCP
K-Lite
14 Apr 2017, 21:05
Mensaje: #14

RE: No Game No Life

(14 Apr 2017 17:36)Hirako21 escribió:  Para poder ver la serie en tu televisor tienes una única opción que es conectar el pc con la tv por medio de un cable HDMI, que no te debe costar ni 5 monedas...

Para el ordenador te recomiendo instalar cualquiera de estos tres paquetes de códecs (solo instala uno):
cccp
KCP
K-Lite

De nadaa...
15 Apr 2017, 19:24
Mensaje: #15

RE: No Game No Life

Gracias a todos por vuestras respuestas!
El caso es que es la primera vez que me encuentro con una caso como este (lo de los "10bit")... no me ha pasado con ningún otro anime ni película (con el "h.265" sí, en ambos casos, pero con no descargarlo...).
Lo del cable HDMI lo dejaré por el momento, ya que entre la TV y el ordenador hay una distancia considerable.
Voy a buscar de nuevo la serie, con ese nuevo dato de los 8bit... Guiño
15 Apr 2017, 20:17
Mensaje: #16

RE: No Game No Life

Pues de aquí en adelante la tendrás difícil, ya que a no ser que se trate de series o peliculas antiguas, la mayoría sólo las encontrarás en 10 bits. Claro que siempre queda la opción de buscarla en la página de algun fansub de dudosa reputación...
16 Apr 2017, 12:48
Mensaje: #17

RE: No Game No Life

Una última pregunta (digamos mejor "penúltima"): ¿dónde se mira eso de los 8 ó 10 bits? ¿Aparece entre los datos del Mediainfo? En caso positivo, ¿en qué sección (general, video...)?
16 Apr 2017, 12:53
Mensaje: #18

RE: No Game No Life

Homika... qué valiente es Hirako.

Se ve en vídeo, Disperso, en BitDepth/String.
16 Apr 2017, 19:28
Mensaje: #19

RE: No Game No Life

@Disperso hay un sencillo programa llamado MediaInfo que lo puedes instalar o usar el portable. Como dice su descripción el programa provee información técnica sobre un archivo de vídeo o audio. También viene incluido en algunos paquetes del K-Lite, así como en el reproductor MPC.

Ejemplos:

8bits:
Mostrar
Código:
Video
ID : 1
Format : AVC
Format/Info : Advanced Video Codec
Format profile : High@L4
Format settings, CABAC : Yes
Format settings, ReFrames : 6 frames
Codec ID : V_MPEG4/ISO/AVC
Duration : 23 min 39 s
Bit rate : 1 776 kb/s
Width : 1 280 pixels
Height : 720 pixels
Display aspect ratio : 16:9
Frame rate mode : Variable
Frame rate : 23.976 (23976/1000) FPS
Color space : YUV
Chroma subsampling : 4:2:0
Bit depth : 8 bits
Scan type : Progressive
Bits/(Pixel*Frame) : 0.080
Stream size : 299 MiB (93%)
Writing library : x264 core 120 r2120 0c7dab9
Encoding settings : cabac=1 / ref=6 / deblock=1:1:1 / analyse=0x3:0x113 / me=umh / subme=8 / psy=1 / psy_rd=0.40:0.00 / mixed_ref=1 / me_range=16 / chroma_me=1 / trellis=1 / 8x8dct=1 / cqm=0 / deadzone=21,11 / fast_pskip=1 / chroma_qp_offset=-2 / threads=4 / sliced_threads=0 / nr=0 / decimate=1 / interlaced=0 / bluray_compat=0 / constrained_intra=0 / bframes=3 / b_pyramid=2 / b_adapt=2 / b_bias=0 / direct=3 / weightb=1 / open_gop=0 / weightp=2 / keyint=250 / keyint_min=23 / scenecut=40 / intra_refresh=0 / rc_lookahead=50 / rc=2pass / mbtree=1 / bitrate=1776 / ratetol=1.0 / qcomp=0.60 / qpmin=0 / qpmax=69 / qpstep=4 / cplxblur=20.0 / qblur=0.5 / vbv_maxrate=3552 / vbv_bufsize=8880 / nal_hrd=none / ip_ratio=1.40 / aq=1:0.60
Default : Yes
Forced : No

10bits:
Mostrar
Código:
Video
ID : 1
Format : AVC
Format/Info : Advanced Video Codec
Format profile : High 10@L5
Format settings, CABAC : Yes
Format settings, ReFrames : 16 frames
Codec ID : V_MPEG4/ISO/AVC
Duration : 1 min 30 s
Bit rate : 7 905 kb/s
Width : 1 280 pixels
Height : 720 pixels
Display aspect ratio : 16:9
Frame rate mode : Constant
Frame rate : 23.976 (24000/1001) FPS
Color space : YUV
Chroma subsampling : 4:2:0
Bit depth : 10 bits
Scan type : Progressive
Bits/(Pixel*Frame) : 0.358
Stream size : 84.9 MiB (94%)
Title : 10bit H.264 - 720p
Writing library : x264 core 142 r2431kMod ac76440
Encoding settings : cabac=1 / ref=16 / deblock=1:0:0 / analyse=0x3:0x133 / me=umh / subme=11 / psy=1 / fade_compensate=0.00 / psy_rd=0.72:0.00 / mixed_ref=1 / me_range=24 / chroma_me=1 / trellis=2 / 8x8dct=1 / cqm=0 / deadzone=21,11 / fast_pskip=0 / chroma_qp_offset=-2 / threads=18 / lookahead_threads=4 / sliced_threads=0 / nr=0 / decimate=0 / interlaced=0 / bluray_compat=0 / constrained_intra=0 / fgo=0 / bframes=16 / b_pyramid=2 / b_adapt=2 / b_bias=0 / direct=3 / weightb=1 / open_gop=0 / weightp=2 / keyint=240 / keyint_min=24 / scenecut=40 / intra_refresh=0 / rc_lookahead=240 / rc=crf / mbtree=1 / crf=14.0000 / qcomp=0.80 / qpmin=0 / qpmax=81 / qpstep=4 / ip_ratio=1.40 / aq=3:0.80
Language : Japanese
Default : Yes
Forced : No
Color range : Limited
Color primaries : BT.709
Transfer characteristics : BT.709
Matrix coefficients : BT.709

Fíjate donde dice Bit depth.
17 Apr 2017, 18:49 (Este mensaje fue modificado por última vez en: 17 Apr 2017 18:49 por Disperso)
Mensaje: #20

RE: No Game No Life

Gracias de nuevo a todos y... a la carga!!! Guiño



Usuario(s) navegando en este tema: 1 invitado(s)