¡Hola, Invitado! (Iniciar sesiónRegístrate)
Hora: 03 Aug 2021, 01:07
¿Sabías que haciendo una donación única o suscribiéndote en Patreon puedes hacerte VIP para navegar sin publicidad y obtener acceso al tracker privado con DVDs/BDs?

8 Man After

06 Sep 2017, 10:33 (Este mensaje fue modificado por última vez en: 22 Sep 2020 21:07 por Mistica)
Mensaje: #1

8 Man After

Completo 8 Man After

Fansub: TLS
Público: Seinen
Ambientación: Ciencia Ficción
Género: Acción
4
Duración: 28min
1993
Video: 704x512 DivX
Contenedor: AVI
Audio:
Servidor:
Solo los usuarios registrados pueden descargar por torrent
Archivos Torrent:[mostrar archivos]
(TLS) 8 Man After OVA 01 Divx 5.03 Spanish.avi281,42 MB
(TLS) 8 Man After OVA 02 Divx 5.03 Spanish.avi284,64 MB
(TLS) 8 Man After OVA 03 Divx 5.03 Spanish.avi275,21 MB
(TLS) 8 Man After OVA 04 Divx 5.03 Spanish.avi287,68 MB
Un oficial de policía que casi muere de forma violenta se convierte en un cyborg con fuerza sobrehumana, velocidad y reflejos.


13 Sep 2017, 10:08
Mensaje: #2

RE: 8 Man After

¿Seguro que esto lo ha hecho TLS?
La versión que tengo yo no coincide con esta (la que tengo yo también es VHS, pero se ve mejor).

MediaInfo:
Mostrar
(TLS) 8 man After OVA - 01 - Ciudad Aterrorizada.avi
Format : AVI
Format/Info : Audio Video Interleave
File size : 357 MiB
Duration : 28mn 3s
Overall bit rate : 1 778 Kbps
Movie name : 8 man After OVA - 01 - Ciudad Aterrorizada
Director : TLS
Subject : 8 man After OVA - 01 - Ciudad Aterrorizada
Writing application : Nandub v1.0rc2
Writing library : Nandub build 1853/release
Copyright : XviD 1.1b2
Comment : No vender ni alquilar

Video
ID : 0
Format : MPEG-4 Visual
Format profile : Simple@L3
Format settings, BVOP : 2
Format settings, QPel : No
Format settings, GMC : No warppoints
Format settings, Matrix : Default (H.263)
Muxing mode : Packed bitstream
Codec ID : XVID
Codec ID/Hint : XviD
Duration : 28mn 3s
Bit rate : 1 669 Kbps
Width : 640 pixels
Height : 480 pixels
Display aspect ratio : 4:3
Frame rate : 25.000 fps
Color space : YUV
Chroma subsampling : 4:2:0
Bit depth : 8 bits
Scan type : Progressive
Compression mode : Lossy
Bits/(Pixel*Frame) : 0.217
Stream size : 335 MiB (94Loco
Writing library : XviD 1.1.0 Beta2 (UTC 2005-04-04)

Audio
ID : 1
Format : MPEG Audio
Format version : Version 1
Format profile : Layer 3
Codec ID : 55
Codec ID/Hint : MP3
Duration : 28mn 3s
Bit rate mode : Constant
Bit rate : 96.0 Kbps
Channel(s) : 1 channel
Sampling rate : 44.1 KHz
Compression mode : Lossy
Stream size : 19.3 MiB (5Loco
Alignment : Aligned on interleaves
Interleave, duration : 26 ms (0.65 video frame)
Interleave, preload duratio : 496 ms
Writing library : LAME3.91
Encoding settings : -m m -V 4 -q 5 -lowpass 18.7 -b 96
13 Sep 2017, 11:30
Mensaje: #3

RE: 8 Man After

Pon los CRC para ver si coinciden o están corruptos los caps .

13 Sep 2017, 11:40
Mensaje: #4

RE: 8 Man After

Los capítulos que tengo yo no están corruptos, porque los he comprobado con los enlaces que hay en el eMule.

Si te fijas verás que el códec de vídeo utilizado no es el mismo.
La versión que ha subido DVNLP es DivX 5, y la que tengo yo XviD (el bit rate tampoco coincide).

Puede que TLS hiciera dos versiones y esta fuera la primera que hicieron. No lo sé.
03 Aug 2018, 00:32
Mensaje: #5

RE: 8 Man After

Bajado y proximamente hoy la vere! Hay alguna otra version de mejor calidad?
09 Sep 2018, 09:31
Mensaje: #6

RE: 8 Man After

Me la quedo y comparto, gracias por esta joyita Mueca
04 Sep 2019, 21:13
Mensaje: #7

RE: 8 Man After

Muchas Gracias!!!



Usuario(s) navegando en este tema: 1 invitado(s)