¡Hola, Invitado! (Iniciar sesiónRegístrate)
Hora: 15 May 2021, 03:27
¿Sabías que haciendo una donación única o suscribiéndote en Patreon puedes hacerte VIP para navegar sin publicidad y obtener acceso al tracker privado con DVDs/BDs?

La chica que saltaba a través del tiempo

21 Feb 2021, 13:35
Mensaje: #1

La chica que saltaba a través del tiempo

Completo La chica que saltaba a través del tiempo

Título original: Toki wo Kakeru Shoujo
Fansub: ?
Público: Shonen
Ambientación: Ciencia Ficción
Estudio: Madhouse
Director: Mamoru Hosoda
1
Duración: 98min
2006
Video: 1920x1080 H.264
Contenedor: MKVSoftsubs
Audio:
Servidor:
Solo los usuarios registrados pueden descargar por torrent
Archivos Torrent:[mostrar archivos]
La chica que saltaba a través del tiempo [1080p](Audio_Cast_Jap_Cat_Lat_Eng-Sub_Esp_Eng).mkv8,15 GB

¿Qué harías si pudieras dar marcha atrás en el tiempo?

Esa es la pregunta que se hace Makoto Konno, una muchacha normal y corriente, cuando un buen día descubre que posee la habilidad de saltar literalmente a través del tiempo.

Gracias a este don, Makoto puede hacer lo que quiera: evitar los accidentes, repetir los exámenes tantas veces como quiera, comer sus platos favoritos hasta hartarse, ayudar a sus compañeros con sus primeros amores...
Pero muy pronto descubre que todo está interconectado y que sus actos, por bienintencionados que sean, pueden llegar a tener consecuencias nefastas en las vidas de aquellos que la rodean.

Cambiar el pasado puede ser un don muy peligroso, especialmente cuando se tiene que aprender a vivir sin él.



Mediainfo:
Mostrar
General
Unique ID : 183639803675798604128939729187303730162 (0x8A27BD5C3260D524CD1814E4D3CE2BF2)
Complete name : C:\La chica que saltaba a través del tiempo [1080p](Audio_Cast_Jap_Cat_Lat_Eng-Sub_Esp_Eng).mkv
Format : Matroska
Format version : Version 4
File size : 8.15 GiB
Duration : 1 h 38 min
Overall bit rate mode : Variable
Overall bit rate : 11.9 Mb/s
Movie name : La chica que saltaba a través del tiempo
Encoded date : UTC 2021-02-20 15:11:00
Writing application : mkvmerge v53.0.0 ('Fool's Gold') 64-bit
Writing library : libebml v1.4.1 + libmatroska v1.6.2

Video
ID : 1
Format : AVC
Format/Info : Advanced Video Codec
Format profile : High@L4.1
Format settings : CABAC / 3 Ref Frames
Format settings, CABAC : Yes
Format settings, Reference : 3 frames
Codec ID : V_MPEG4/ISO/AVC
Duration : 1 h 38 min
Bit rate mode : Variable
Bit rate : 7 315 kb/s
Maximum bit rate : 40.0 Mb/s
Width : 1 920 pixels
Height : 1 080 pixels
Display aspect ratio : 16:9
Frame rate mode : Constant
Frame rate : 23.976 (24000/1001) FPS
Color space : YUV
Chroma subsampling : 4:2:0
Bit depth : 8 bits
Scan type : Progressive
Bits/(Pixel*Frame) : 0.147
Stream size : 5.03 GiB (62Loco
Title : La chica que saltaba a través del tiempo
Writing library : x264 core 130 r2273 b3065e6
Encoding settings : cabac=1 / ref=3 / deblock=1:0:0 / analyse=0x3:0x113 / me=hex / subme=7 / psy=1 / psy_rd=1.00:0.00 / mixed_ref=1 / me_range=16 / chroma_me=1 / trellis=1 / 8x8dct=1 / cqm=0 / deadzone=21,11 / fast_pskip=1 / chroma_qp_offset=-2 / threads=12 / lookahead_threads=2 / sliced_threads=0 / slices=4 / nr=0 / decimate=1 / interlaced=0 / bluray_compat=1 / constrained_intra=0 / bframes=3 / b_pyramid=1 / b_adapt=1 / b_bias=0 / direct=1 / weightb=1 / open_gop=1 / weightp=1 / keyint=24 / keyint_min=1 / scenecut=40 / intra_refresh=0 / rc_lookahead=24 / rc=crf / mbtree=1 / crf=18.0 / qcomp=0.60 / qpmin=0 / qpmax=69 / qpstep=4 / vbv_maxrate=40000 / vbv_bufsize=30000 / crf_max=0.0 / nal_hrd=vbr / ip_ratio=1.40 / aq=1:1.00
Default : Yes
Forced : No
Color range : Limited
Color primaries : BT.709
Transfer characteristics : BT.709
Matrix coefficients : BT.709

Audio #1
ID : 2
Format : AC-3
Format/Info : Audio Coding 3
Commercial name : Dolby Digital
Codec ID : A_AC3
Duration : 1 h 38 min
Bit rate mode : Constant
Bit rate : 448 kb/s
Channel(s) : 6 channels
Channel layout : L R C LFE Ls Rs
Sampling rate : 48.0 kHz
Frame rate : 31.250 FPS (1536 SPF)
Compression mode : Lossy
Stream size : 314 MiB (4Loco
Title : Castellano AC3 5.1
Language : Spanish
Service kind : Complete Main
Default : Yes
Forced : No

Audio #2
ID : 3
Format : DTS XLL
Format/Info : Digital Theater Systems
Commercial name : DTS-HD Master Audio
Codec ID : A_DTS
Duration : 1 h 38 min
Bit rate mode : Variable
Bit rate : 1 956 kb/s
Channel(s) : 6 channels
Channel layout : C L R Ls Rs LFE
Sampling rate : 48.0 kHz
Frame rate : 93.750 FPS (512 SPF)
Bit depth : 16 bits
Compression mode : Lossless
Stream size : 1.34 GiB (16Loco
Title : Japones DTS 5.1
Language : Japanese
Default : No
Forced : No

Audio #3
ID : 4
Format : AAC LC
Format/Info : Advanced Audio Codec Low Complexity
Codec ID : A_AAC-2
Duration : 1 h 37 min
Bit rate : 870 kb/s
Channel(s) : 6 channels
Channel layout : C L R Ls Rs LFE
Sampling rate : 48.0 kHz
Frame rate : 46.875 FPS (1024 SPF)
Compression mode : Lossy
Delay relative to video : 3 s 500 ms
Stream size : 609 MiB (7Loco
Title : Catalán AAC 5.1
Language : Catalan
Default : No
Forced : No

Audio #4
ID : 5
Format : AC-3
Format/Info : Audio Coding 3
Commercial name : Dolby Digital
Codec ID : A_AC3
Duration : 1 h 37 min
Bit rate mode : Constant
Bit rate : 640 kb/s
Channel(s) : 6 channels
Channel layout : L R C LFE Ls Rs
Sampling rate : 48.0 kHz
Frame rate : 31.250 FPS (1536 SPF)
Compression mode : Lossy
Delay relative to video : 3 s 500 ms
Stream size : 448 MiB (5Loco
Title : Latino AC3 5.1
Service kind : Complete Main
Default : No
Forced : No

Audio #5
ID : 6
Format : AC-3
Format/Info : Audio Coding 3
Commercial name : Dolby Digital
Codec ID : A_AC3
Duration : 1 h 38 min
Bit rate mode : Constant
Bit rate : 640 kb/s
Channel(s) : 6 channels
Channel layout : L R C LFE Ls Rs
Sampling rate : 48.0 kHz
Frame rate : 31.250 FPS (1536 SPF)
Compression mode : Lossy
Delay relative to video : 3 s 500 ms
Stream size : 449 MiB (5Loco
Title : AC3 Ingles 5.1
Language : English
Service kind : Complete Main
Default : No
Forced : No

Text #1
ID : 7
Format : ASS
Codec ID : S_TEXT/ASS
Codec ID/Info : Advanced Sub Station Alpha
Duration : 1 h 33 min
Bit rate : 88 b/s
Count of elements : 1282
Compression mode : Lossless
Stream size : 60.7 KiB (0Loco
Title : Español
Language : Spanish
Default : No
Forced : No

Text #2
ID : 8
Format : ASS
Codec ID : S_TEXT/ASS
Codec ID/Info : Advanced Sub Station Alpha
Duration : 1 h 37 min
Bit rate : 98 b/s
Count of elements : 1366
Compression mode : Lossless
Stream size : 70.2 KiB (0Loco
Title : Español(TLDSD)
Language : Spanish
Default : Yes
Forced : No

Text #3
ID : 9
Format : ASS
Codec ID : S_TEXT/ASS
Codec ID/Info : Advanced Sub Station Alpha
Duration : 1 h 37 min
Bit rate : 107 b/s
Count of elements : 1364
Compression mode : Lossless
Stream size : 76.7 KiB (0Loco
Title : Ingles
Language : English
Default : No
Forced : No
21 Feb 2021, 14:08 (Este mensaje fue modificado por última vez en: 21 Feb 2021 14:10 por SaitoChanGG)
Mensaje: #2

RE: La chica que saltaba a través del tiempo

Bit rate : 7 315 kb/s
Encoded date : UTC 2021-02-20 15:11:00

No se permite subir animes que han sido comprimidos usando --bitrate en vez de --crf si el fansub ha trabajado dicho anime después del año 2013. Reconocerás la compresión de bitrate fijo porque todos los episodios ocupan lo mismo, lo cual no está permitido.
Con la excepción de:
remuxes cuyo vídeo usa x264 con una versión del core < 120
remuxes de fuentes de streaming (e.g. CrunchyRoll)
películas o cortometrajes siempre cuando no hay un alternativo aceptable
21 Feb 2021, 15:55
Mensaje: #3

RE: La chica que saltaba a través del tiempo

(21 Feb 2021 14:08)SaitoChanGG escribió:  Bit rate : 7 315 kb/s
Encoded date : UTC 2021-02-20 15:11:00

No se permite subir animes que han sido comprimidos usando --bitrate en vez de --crf si el fansub ha trabajado dicho anime después del año 2013. Reconocerás la compresión de bitrate fijo porque todos los episodios ocupan lo mismo, lo cual no está permitido.
Con la excepción de:
remuxes cuyo vídeo usa x264 con una versión del core < 120
remuxes de fuentes de streaming (e.g. CrunchyRoll)
películas o cortometrajes siempre cuando no hay un alternativo aceptable

Creo que te has confundido un poco. Para ver qué tipo de compresión se ha usado, debes revisar la sección "encoding settings". Y, bueno, ahí mismo pone que es --crf, así que, por ahora, cumpliría con las normas.

MediaInfo:
Mostrar
Encoding settings : cabac=1 / ref=3 / deblock=1:0:0 / analyse=0x3:0x113 / me=hex / subme=7 / psy=1 / psy_rd=1.00:0.00 / mixed_ref=1 / me_range=16 / chroma_me=1 / trellis=1 / 8x8dct=1 / cqm=0 / deadzone=21,11 / fast_pskip=1 / chroma_qp_offset=-2 / threads=12 / lookahead_threads=2 / sliced_threads=0 / slices=4 / nr=0 / decimate=1 / interlaced=0 / bluray_compat=1 / constrained_intra=0 / bframes=3 / b_pyramid=1 / b_adapt=1 / b_bias=0 / direct=1 / weightb=1 / open_gop=1 / weightp=1 / keyint=24 / keyint_min=1 / scenecut=40 / intra_refresh=0 / rc_lookahead=24 / rc=crf / mbtree=1 / crf=18.0 / qcomp=0.60 / qpmin=0 / qpmax=69 / qpstep=4 / vbv_maxrate=40000 / vbv_bufsize=30000 / crf_max=0.0 / nal_hrd=vbr / ip_ratio=1.40 / aq=1:1.00

De todas maneras, se agradece la ayuda.
21 Feb 2021, 16:34
Mensaje: #4

RE: La chica que saltaba a través del tiempo

(21 Feb 2021 15:55)buhonightblue escribió:  
(21 Feb 2021 14:08)SaitoChanGG escribió:  Bit rate : 7 315 kb/s
Encoded date : UTC 2021-02-20 15:11:00

No se permite subir animes que han sido comprimidos usando --bitrate en vez de --crf si el fansub ha trabajado dicho anime después del año 2013. Reconocerás la compresión de bitrate fijo porque todos los episodios ocupan lo mismo, lo cual no está permitido.
Con la excepción de:
remuxes cuyo vídeo usa x264 con una versión del core < 120
remuxes de fuentes de streaming (e.g. CrunchyRoll)
películas o cortometrajes siempre cuando no hay un alternativo aceptable

Creo que te has confundido un poco. Para ver qué tipo de compresión se ha usado, debes revisar la sección "encoding settings". Y, bueno, ahí mismo pone que es --crf, así que, por ahora, cumpliría con las normas.

MediaInfo:
Mostrar
Encoding settings : cabac=1 / ref=3 / deblock=1:0:0 / analyse=0x3:0x113 / me=hex / subme=7 / psy=1 / psy_rd=1.00:0.00 / mixed_ref=1 / me_range=16 / chroma_me=1 / trellis=1 / 8x8dct=1 / cqm=0 / deadzone=21,11 / fast_pskip=1 / chroma_qp_offset=-2 / threads=12 / lookahead_threads=2 / sliced_threads=0 / slices=4 / nr=0 / decimate=1 / interlaced=0 / bluray_compat=1 / constrained_intra=0 / bframes=3 / b_pyramid=1 / b_adapt=1 / b_bias=0 / direct=1 / weightb=1 / open_gop=1 / weightp=1 / keyint=24 / keyint_min=1 / scenecut=40 / intra_refresh=0 / rc_lookahead=24 / rc=crf / mbtree=1 / crf=18.0 / qcomp=0.60 / qpmin=0 / qpmax=69 / qpstep=4 / vbv_maxrate=40000 / vbv_bufsize=30000 / crf_max=0.0 / nal_hrd=vbr / ip_ratio=1.40 / aq=1:1.00

De todas maneras, se agradece la ayuda.

Ya veo, se me ha pasado Pie en boca



Usuario(s) navegando en este tema: 1 invitado(s)