¡Hola, Invitado! (Iniciar sesiónRegístrate)
Hora: 14 Jun 2021, 02:42
¿Sabías que haciendo una donación única o suscribiéndote en Patreon puedes hacerte VIP para navegar sin publicidad y obtener acceso al tracker privado con DVDs/BDs?

 
Calificación:
  • 0 votos - 0 Media
  • 1
  • 2
  • 3
  • 4
  • 5

Mahou Shoujo Lyrical Nanoha: The Movie 1st

28 May 2021, 04:36 (Este mensaje fue modificado por última vez en: 30 May 2021 16:44 por Shin Gouki)
Mensaje: #1

Mahou Shoujo Lyrical Nanoha: The Movie 1st

Magia, Dispositivos tecnológicos, familiares creados artificialmente a partir de un ser vivo, el mundo donde la magia y la tecnología forman una simbiosis. Nos narra la historia de Nanoha Takamachi una niña de 9 años con una vida normal hasta que un día recibe la misión de recolectar 21 Jewel Seeds poderosos cristales de energía capaz de poner en peligro la estabilidad del Espacio-Tiempo si caen en las manos equivocadas. El día en que Nanoha recibe la misión oye una voz llamándola de vuelta a casa y termina rescatando un hurón herido (cuya forma humana es un niño arqueólogo, Yūno, que proviene de otro mundo). No envuelve en una carrera contrarreloj por las Jewel Seeds, Nanoha con la misión de recuperar las, Fate la otra chica mágica que tan bien las desea para entregárselas a su madre, la madre de esta que las necesita para culminar algo, y la organización que vela por la estabilidad.


28 May 2021, 11:53
Mensaje: #2

RE: Mahou Shoujo Lyrical Nanoha: The Movie 1st

Kaitoloid801

El campo "Título original" solo se rellena si la serie, OVA, película, etc, ha sido licenciada y el nombre fuese distinto del título original, en cuyo caso sería el título que aparezca en MAL, pero siempre en rômaji.

Te he editado ese detalle en esta y en las otras dos fichas que has creado. Tenlo en cuenta para la próxima vez.

Saludos.
10 Jun 2021, 17:01 (Este mensaje fue modificado por última vez en: 10 Jun 2021 18:05 por Shin Gouki)
Mensaje: #3

RE: Mahou Shoujo Lyrical Nanoha: The Movie 1st

Siempre se agradece la intención de aportar cosas al foro pero lamentablemente debo enviar este trabajo a la "papelera" porque incumple la siguiente norma de subidas de UF:

No se permite subir animes que han sido comprimidos usando --bitrate en vez de --crf si el fansub ha trabajado dicho anime después del año 2013.

Mediainfo:
Mostrar
General
Unique ID : 182092269569600731696446794644986905068 (0x88FDB209B3E95FD1A142623CD0BDC1EC)
Complete name : [ECA] Magical Girl Lyrical Nanoha - The Movie 1st [BD 1080] [7F4C25E5].mkv
Format : Matroska
Format version : Version 4
File size : 5.66 GiB
Duration : 2 h 10 min
Overall bit rate mode : Variable
Overall bit rate : 6 221 kb/s
Movie name : [ECA] Magical Girl Lyrical Nanoha - The Movie 1st [BD 1080]
Encoded date : UTC 2015-04-08 04:22:12
Writing application : mkvmerge v7.3.0 ('Nouages') 32bit built on Oct 22 2014 18:44:01
Writing library : libebml v1.3.0 + libmatroska v1.4.1
Attachments : Aldo_PC.ttf / Amienne.ttf / arial.ttf / arialbd.ttf / ARLRDBD.TTF / Blokletters-Balpen.ttf / Enigma_.ttf / erasdus0.ttf / GosmickSans.ttf / HoboStd.otf / HUMASNM.TTF / NeoSansIntel.ttf

Video
ID : 1
Format : AVC
Format/Info : Advanced Video Codec
Format profile : High 10@L4
Format settings : CABAC / 4 Ref Frames
Format settings, CABAC : Yes
Format settings, Reference : 4 frames
Codec ID : V_MPEG4/ISO/AVC
Duration : 2 h 10 min
Bit rate : 4 299 kb/s
Width : 1 920 pixels
Height : 1 080 pixels
Display aspect ratio : 16:9
Frame rate mode : Constant
Frame rate : 23.976 (24000/1001) FPS
Color space : YUV
Chroma subsampling : 4:2:0
Bit depth : 10 bits
Scan type : Progressive
Bits/(Pixel*Frame) : 0.086
Stream size : 3.91 GiB (69%)
Title : Hi10p
Writing library : x264 core 133 r2334 a3ac64b
Encoding settings : cabac=1 / ref=4 / deblock=1:1:1 / analyse=0x3:0x133 / me=umh / subme=7 / psy=1 / psy_rd=0.40:0.00 / mixed_ref=1 / me_range=16 / chroma_me=1 / trellis=1 / 8x8dct=1 / cqm=0 / deadzone=21,11 / fast_pskip=1 / chroma_qp_offset=-2 / threads=6 / lookahead_threads=1 / sliced_threads=0 / nr=0 / decimate=1 / interlaced=0 / bluray_compat=0 / constrained_intra=0 / bframes=5 / b_pyramid=2 / b_adapt=1 / b_bias=0 / direct=1 / weightb=1 / open_gop=0 / weightp=2 / keyint=240 / keyint_min=23 / scenecut=40 / intra_refresh=0 / rc_lookahead=40 / rc=2pass / mbtree=1 / bitrate=4299 / ratetol=1.0 / qcomp=0.60 / qpmin=0 / qpmax=81 / qpstep=4 / cplxblur=20.0 / qblur=0.5 / vbv_maxrate=25000 / vbv_bufsize=31250 / nal_hrd=none / ip_ratio=1.40 / aq=1:0.60
Default : Yes
Forced : No

Audio #1
ID : 2
Format : FLAC
Format/Info : Free Lossless Audio Codec
Codec ID : A_FLAC
Duration : 2 h 10 min
Bit rate mode : Variable
Bit rate : 1 492 kb/s
Channel(s) : 6 channels
Channel layout : L R C LFE Ls Rs
Sampling rate : 48.0 kHz
Frame rate : 11.719 FPS (4096 SPF)
Bit depth : 16 bits
Compression mode : Lossless
Stream size : 1.36 GiB (24%)
Title : FLAC
Writing library : libFLAC 1.2.1 (UTC 2007-09-17)
Default : Yes
Forced : No

Audio #2
ID : 3
Format : AAC LC
Format/Info : Advanced Audio Codec Low Complexity
Codec ID : A_AAC-2
Duration : 2 h 10 min
Bit rate : 425 kb/s
Channel(s) : 6 channels
Channel layout : C L R Ls Rs LFE
Sampling rate : 48.0 kHz
Frame rate : 46.875 FPS (1024 SPF)
Compression mode : Lossy
Stream size : 396 MiB (7%)
Title : ACC
Default : No
Forced : No

Text
ID : 4
Format : ASS
Codec ID : S_TEXT/ASS
Codec ID/Info : Advanced Sub Station Alpha
Duration : 2 h 9 min
Bit rate : 98 b/s
Count of elements : 1382
Compression mode : Lossless
Stream size : 93.6 KiB (0%)
Title : ECA - Latino
Default : Yes
Forced : No

Saludos.


Usuario(s) navegando en este tema: 1 invitado(s)