¡Hola, Invitado! (Iniciar sesiónRegístrate)
Hora: 27 Jul 2021, 13:58
¿Sabías que haciendo una donación única o suscribiéndote en Patreon puedes hacerte VIP para navegar sin publicidad y obtener acceso al tracker privado con DVDs/BDs?

Lovely

06 Jul 2021, 04:12 (Este mensaje fue modificado por última vez en: 06 Jul 2021 20:14 por precise_dingo)
Mensaje: #1

Lovely

Completo Lovely

Ambientación: Presente
Contenido: Vida Escolar
Censura: Censurado
Subtítulos: SakuraCircle, Hentai_adx
RAW: Puff
2
Duración: 40 min
2019
Video: 1920x1080 - 10bit - HEVC
Contenedor: MKVSoftsubs
Audio:
Servidor:
Episodio 1: Ando Aina es una chica muy activa a la que le gusta burlarse de su profesor de clase, Tanaka. Aina le pregunta si es virgen un día, y ella decide quitarle la virginidad. Y así, es agarrado por el pene por una chica mucho más joven que él...

Episodio 2: Una repentina tormenta les obligó a refugiarse en el edificio de un gimnasio cercano. Aunque sólo fue por un rato, él se sintió incómodo al sentarse junto a ella, ya que estaba empapada y podía ver a través de su ropa...

Después de hacer todo lo posible para conseguir cualquier tipo de reacción de ella, se intensificó hasta el punto de que ella estaba de espaldas y completamente desnuda... lista y esperando por él.


Media-Info:
Mostrar
Video
ID : 2
Format : HEVC
Format/Info : High Efficiency Video Coding
Format profile : Main 10@L5@Main
Codec ID : V_MPEGH/ISO/HEVC
Duration : 14 min 48 s
Bit rate : 4 327 kb/s
Width : 1 920 pixels
Height : 1 080 pixels
Display aspect ratio : 16:9
Frame rate mode : Constant
Frame rate : 23.976 (24000/1001) FPS
Color space : YUV
Chroma subsampling : 4:2:0
Bit depth : 10 bits
Bits/(Pixel*Frame) : 0.087
Stream size : 458 MiB (94Loco
Title : FHD Encode by Puff on Rizon
Writing library : x265 3.4+1-g07e3381df+31:[Windows][MSVC 1926][64 bit] Yuuki 10bit+8bit+12bit
Encoding settings : rc=crf / crf=16.0000 / qcomp=0.70 / qpstep=4 / stats-write=0 / stats-read=0 / no-lossless / no-cu-lossless / aq-mode=1 / aq-strength=0.85 / cbqpoffs=-2 / crqpoffs=-2 / ipratio=1.40 / pbratio=1.20 / psy-rd=2.00 / psy-rdoq=5.00 / deblock=0:0 / ref=6 / limit-refs=0 / no-limit-modes / bframes=16 / b-adapt=2 / bframe-bias=0 / b-pyramid / b-intra / weightp / weightb / min-keyint=1 / max-keyint=240 / rc-lookahead=60 / gop-lookahead=0 / scenecut=40 / hist-scenecut=0 / radl=0 / max-cu-size=32 / min-cu-size=8 / me=4 / subme=7 / merange=48 / rdoq-level=2 / rd=4 / rdpenalty=0 / dynamic-rd=0.00 / no-rd-refine / ----- / cutree / no-sao / no-rect / no-amp / no-open-gop / wpp / no-pmode / no-pme / no-psnr / no-ssim / nr-intra=0 / nr-inter=0 / no-constrained-intra / no-strong-intra-smoothing / max-tu-size=32 / tu-inter-depth=4 / tu-intra-depth=4 / limit-tu=0 / qg-size=8 / qpmax=69 / qpmin=0 / ----- / cpuid=1111039 / frame-threads=8 / numa-pools=8 / log-level=2 / input-csp=1 / input-res=1920x1080 / interlace=0 / level-idc=0 / high-tier=1 / uhd-bd=0 / no-allow-non-conformance / no-repeat-headers / no-aud / no-hrd / info / hash=0 / no-temporal-layers / lookahead-slices=6 / no-splice / no-intra-refresh / no-ssim-rd / signhide / tskip / max-merge=4 / temporal-mvp / no-frame-dup / no-hme / no-analyze-src-pics / no-sao-non-deblock / selective-sao=0 / no-early-skip / rskip / no-fast-intra / tskip-fast / no-splitrd-skip / zone-count=0 / no-strict-cbr / no-rc-grain / no-const-vbv / sar=0 / overscan=0 / videoformat=5 / range=0 / colorprim=1 / transfer=1 / colormatrix=1 / chromaloc=0 / display-window=0 / cll=0,0 / min-luma=0 / max-luma=1023 / log2-max-poc-lsb=8 / vui-timing-info / vui-hrd-info / slices=1 / no-opt-qp-pps / no-opt-ref-list-length-pps / no-multi-pass-opt-rps / scenecut-bias=0.05 / hist-threshold=0.01 / no-opt-cu-delta-qp / no-aq-motion / no-hdr10 / no-hdr10-opt / no-dhdr10-opt / no-idr-recovery-sei / analysis-reuse-level=0 / analysis-save-reuse-level=0 / analysis-load-reuse-level=0 / scale-factor=0 / refine-intra=0 / refine-inter=0 / refine-mv=1 / refine-ctu-distortion=0 / no-limit-sao / ctu-info=0 / no-lowpass-dct / refine-analysis-type=0 / copy-pic=1 / max-ausize-factor=1.0 / no-dynamic-refine / no-single-sei / no-hevc-aq / no-svt / no-field / qp-adaptation-range=2.00 / no-scenecut-aware-qpconformance-window-offsets / right=0 / bottom=0 / decoder-max-rate=0
Language : Japanese
Default : Yes
Forced : No
Color range : Limited
Color primaries : BT.709
Transfer characteristics : BT.709
Matrix coefficients : BT.709

Audio
ID : 3
Format : AAC LC
Format/Info : Advanced Audio Codec Low Complexity
Codec ID : A_AAC-2
Duration : 14 min 48 s
Bit rate : 256 kb/s
Channel(s) : 2 channels
Channel layout : L R
Sampling rate : 48.0 kHz
Frame rate : 46.875 FPS (1024 SPF)
Compression mode : Lossy
Stream size : 27.1 MiB (6Loco
Language : Japanese
Default : Yes
Forced : No

Text #1
ID : 1
Format : ASS
Codec ID : S_TEXT/ASS
Codec ID/Info : Advanced Sub Station Alpha
Duration : 14 min 45 s
Bit rate : 414 b/s
Count of elements : 286
Compression mode : Lossless
Stream size : 44.8 KiB (0Loco
Title : SakuraCircle - ENG
Language : English
Default : No
Forced : No

Text #2
ID : 4
Format : ASS
Codec ID : S_TEXT/ASS
Codec ID/Info : Advanced Sub Station Alpha
Duration : 14 min 46 s
Bit rate : 117 b/s
Count of elements : 227
Compression mode : Lossless
Stream size : 12.8 KiB (0Loco
Title : Hentai_adx - ESP
Language : Spanish
Default : Yes
Forced : No

06 Jul 2021, 16:04
Mensaje: #2

RE: Lovely

Creo que se murió muy rápido Fruncir
06 Jul 2021, 16:58 (Este mensaje fue modificado por última vez en: 06 Jul 2021 18:19 por precise_dingo)
Mensaje: #3

RE: Lovely

(06 Jul 2021 16:04)Fabiok89 escribió:  Creo que se murió muy rápido Fruncir

Espera y lo subo de nuevo xd

Edito: Se actualizaron los enlaces a Zippyshare (lo siento por los Españoles xd), espero no mueran rápido :'v



Usuario(s) navegando en este tema: 1 invitado(s)