¡Hola, Invitado! (Iniciar sesiónRegístrate)
Hora: 22 Sep 2021, 06:39
¿Sabías que haciendo una donación única o suscribiéndote en Patreon puedes hacerte VIP para, además de obtener beneficios en el foro, tener acceso tracker privado con DVDs/BDs?

Stripping Animation "Midnight Proposal - Nora Ver."

17 Jul 2021, 07:25
Mensaje: #1

Stripping Animation "Midnight Proposal - Nora Ver."

Completo Stripping Animation "Midnight Proposal - Nora Ver."

Ambientación: Presente
Contenido: Lolicon
Censura: Censurado
RAW: Puff
Bit Depth: 10bit
1
Duración: 5 min
2021
Video: 1920x1080 HEVC
Contenedor: MKV
Audio:
Servidor:
Trabajando en un burdel medieval de clase alta, Nora mantiene la cabeza alta, mostrando una sonrisa lasciva con su forma felina. Vuelve a llevar tu disfraz favorito y hará lo que sea necesario para garantizar tu completa satisfacción.

NOTA: Está es una animación que se incluye con una figura Nora w/Animated Blu-ray Disc
Eso significa que puede que alguien haga los subs de JP a EN, y sí es así, yo haré los subs a ESP


Media-Info:
Mostrar
Video
ID : 1
Format : HEVC
Format/Info : High Efficiency Video Coding
Format profile : Main 10@L5@Main
Codec ID : V_MPEGH/ISO/HEVC
Duration : 5 min 0 s
Bit rate : 3 415 kb/s
Width : 1 920 pixels
Height : 1 080 pixels
Display aspect ratio : 16:9
Frame rate mode : Constant
Frame rate : 24.000 FPS
Original frame rate : 23.976 (24000/1001) FPS
Color space : YUV
Chroma subsampling : 4:2:0
Bit depth : 10 bits
Bits/(Pixel*Frame) : 0.069
Stream size : 122 MiB (91%)
Writing library : x265 3.4+1-g07e3381df+31:[Windows][MSVC 1926][64 bit]
Language : Japanese
Default : Yes
Forced : No
Color range : Limited
Color primaries : BT.709
Transfer characteristics : BT.709
Matrix coefficients : BT.709

Audio
ID : 2
Format : AAC LC
Format/Info : Advanced Audio Codec Low Complexity
Codec ID : A_AAC-2
Duration : 5 min 0 s
Bit rate : 317 kb/s
Channel(s) : 2 channels
Channel layout : L R
Sampling rate : 48.0 kHz
Frame rate : 46.875 FPS (1024 SPF)
Compression mode : Lossy
Stream size : 11.4 MiB (8%)
Language : English
Default : Yes
Forced : No

Enlace - WorkUpload - Peso aprox - 140MB:
Mostrar
31 Jul 2021, 18:25
Mensaje: #2

RE: Stripping Animation "Midnight Proposal - Nora Ver."

Si un hentai no tiene ficha en MAL, una de dos, o no se puede subir al foro o hay que publicarlo en la sección Hentai CG dependiendo de su naturaleza (en este caso, tiene que estar en HCG, así que te lo muevo allí).

Por cierto, en la sección del hentai normal no se pueden subir cosas que no contengan subtítulos en español (lee las normas, por favor).
31 Jul 2021, 22:44
Mensaje: #3

RE: Stripping Animation "Midnight Proposal - Nora Ver."

Espero tenga hardcore...
Se agradece la Blondie Loli



Usuario(s) navegando en este tema: 1 invitado(s)