¡Hola, Invitado! (Iniciar sesiónRegístrate)
Hora: 11 Aug 2020, 22:20
¿Sabías que haciendo una donación única o suscribiéndote en Patreon puedes hacerte VIP para navegar sin publicidad y obtener acceso al tracker privado con DVDs/BDs?

 
Calificación:
  • 4 votos - 4.25 Media
  • 1
  • 2
  • 3
  • 4
  • 5

Hablemos de los fansubs

03 Aug 2019, 18:42
Mensaje: #861

RE: Hablemos de los fansubs

Te recuerdo que si quieres seguir sigas en este hilo, por si no te había quedado claro. Por lo que veo a muchos aún os sigue costando informaros mínimamente... Pero bueno, no se puede hablar contra alguien que se niega a leer aunque sea un poco o ver como está el panorama actual. Así que no mejor será de dejar de seguirte el juego.

04 Aug 2019, 21:51
Mensaje: #862

RE: Hablemos de los fansubs

Corrijo a Inter, seguid el debate sobre el lenguaje inclusivo aquí
05 Aug 2019, 02:45
Mensaje: #863

RE: Hablemos de los fansubs

(29 Jul 2019 01:59)Intervención escribió:  A veces pienso que la gente debería montarse fansubs a gusto Risa
para eso no estan los grupos de facebook como SubAnima?
Para mi si un fansub regala y deja libre los subs para modificar al placer de uno no le veo problema, pero no entiendo porque aveces son imparciales cuando un fansub solo sube en mp4. Para mi gusto cada fansub le puede poner su toque de personalidad con tal de que no se arruine la calidad de traducion y se entienda la font. Pero ultimamente estoy viendo resurgir fansubs del 2006 donde se ponian experimentales o ponian todo en negrilla, y letra cursiva con su propia font, y aveces colores muy saturados. Ahi donde coloco mi limite y por eso agradesco a cualquier fansub se va mas por un neutro font tipo netflix.
05 Aug 2019, 04:34
Mensaje: #864

RE: Hablemos de los fansubs

borraron mi comentario sobre los otakus fascistas, eso me dio la razón ahahahah

debio ser el chilenito xenófono
05 Aug 2019, 05:48
Mensaje: #865

RE: Hablemos de los fansubs

¿Cuál de todos?

XD
05 Aug 2019, 06:57 (Este mensaje fue modificado por última vez en: 05 Aug 2019 07:03 por buhonightblue)
Mensaje: #866

RE: Hablemos de los fansubs

(05 Aug 2019 04:34)kurenaidai escribió:  borraron mi comentario sobre los otakus fascistas, eso me dio la razón ahahahah

debio ser el chilenito xenófono

Tu comentario fue eliminado porque este es un tema para hablar de fansubs, y estabas haciendo off-topic (cosa que, de hecho, sigues haciendo), amén de insultar gratuitamente.
16 Aug 2019, 23:07
Mensaje: #867

RE: Hablemos de los fansubs

¿La versión de TK de Ranma ½ vale la pena?
MediaInfo:
Mostrar
1080p escribió:General
Unique ID : 223337669607968787464649912662410774757 (0xA805454378655575A5A268406D25C8E5)
Complete name : I:\_DESCARGAS\[xZero_] Ranma ½ - 1080p Parte 5\[xZ] Ranma ½ - 001.mkv
Format : Matroska
Format version : Version 4
File size : 1.23 GiB
Duration : 23 min 47 s
Overall bit rate mode : Variable
Overall bit rate : 7 401 kb/s
Movie name : Ranma ½ Blu-Ray - Capítulo 001: "De China llega un extraño" -Release by GfS-
Encoded date : UTC 2016-03-16 05:52:30
Writing application : mkvmerge v8.9.0 ('Father Daughter') 64bit
Writing library : libebml v1.3.3 + libmatroska v1.4.4
Attachments : LaoUI.ttf

Video
ID : 1
Format : AVC
Format/Info : Advanced Video Codec
Format profile : High 10@L4.1
Format settings : CABAC / 4 Ref Frames
Format settings, CABAC : Yes
Format settings, ReFrames : 4 frames
Codec ID : V_MPEG4/ISO/AVC
Duration : 23 min 47 s
Bit rate : 6 500 kb/s
Width : 1 440 pixels
Height : 1 080 pixels
Display aspect ratio : 4:3
Frame rate mode : Constant
Frame rate : 23.976 (24000/1001) FPS
Color space : YUV
Chroma subsampling : 4:2:0
Bit depth : 10 bits
Scan type : Progressive
Bits/(Pixel*Frame) : 0.174
Stream size : 1.08 GiB (88Loco
Title : Ranma ½ 001 [BDRip x264 Hi10p 1080p]
Writing library : x264 core 142 r2409 d6b4e63
Encoding settings : cabac=1 / ref=4 / deblock=1:-3:-1 / analyse=0x3:0x133 / me=umh / subme=10 / psy=1 / psy_rd=0.80:0.00 / mixed_ref=1 / me_range=24 / chroma_me=1 / trellis=2 / 8x8dct=1 / cqm=0 / deadzone=21,11 / fast_pskip=1 / chroma_qp_offset=-2 / threads=6 / lookahead_threads=1 / sliced_threads=0 / nr=0 / decimate=1 / interlaced=0 / bluray_compat=0 / constrained_intra=0 / bframes=3 / b_pyramid=2 / b_adapt=2 / b_bias=0 / direct=3 / weightb=1 / open_gop=0 / weightp=2 / keyint=240 / keyint_min=23 / scenecut=40 / intra_refresh=0 / rc_lookahead=40 / rc=2pass / mbtree=1 / bitrate=6500 / ratetol=1.0 / qcomp=0.65 / qpmin=0 / qpmax=81 / qpstep=4 / cplxblur=20.0 / qblur=0.5 / ip_ratio=1.40 / aq=2:0.50
Language : Japanese
Default : Yes
Forced : No
Color range : Limited
Color primaries : BT.709
Transfer characteristics : BT.709
Matrix coefficients : BT.709

Audio #1
ID : 2
Format : FLAC
Format/Info : Free Lossless Audio Codec
Codec ID : A_FLAC
Duration : 23 min 47 s
Bit rate mode : Variable
Bit rate : 471 kb/s
Channel(s) : 2 channels
Channel layout : L R
Sampling rate : 48.0 kHz
Frame rate : 11.719 FPS (4096 SPF)
Bit depth : 16 bits
Compression mode : Lossless
Stream size : 80.1 MiB (6Loco
Title : Español Latino
Writing library : libFLAC 1.3.0 (UTC 2013-05-26)
Language : Spanish
Default : Yes
Forced : No

Audio #2
ID : 3
Format : FLAC
Format/Info : Free Lossless Audio Codec
Codec ID : A_FLAC
Duration : 23 min 47 s
Bit rate mode : Variable
Bit rate : 427 kb/s
Channel(s) : 2 channels
Channel layout : L R
Sampling rate : 48.0 kHz
Frame rate : 11.719 FPS (4096 SPF)
Bit depth : 16 bits
Compression mode : Lossless
Stream size : 72.7 MiB (6Loco
Title : Japones
Writing library : libFLAC 1.3.0 (UTC 2013-05-26)
Language : Japanese
Default : No
Forced : No

Text
ID : 4
Format : ASS
Codec ID : S_TEXT/ASS
Codec ID/Info : Advanced Sub Station Alpha
Duration : 8 min 6 s
Bit rate : 2 b/s
Count of elements : 2
Compression mode : Lossless
Stream size : 123 Bytes (0Loco
Title : Textos y escenas censuradas
Language : Spanish
Default : Yes
Forced : Yes

Menu
00:00:00.000 : es:Opening
00:01:31.171 : es:Parte A
00:12:36.808 : es:Parte B
00:21:57.345 : es:Ending
00:23:27.431 : es:Avance
  
720p escribió:General
Unique ID : 211989464063319349377790312705406507380 (0x9F7BAF884AFC8BEC8817AA089C9F9974)
Complete name : I:\_DESCARGAS\[xZero_] Ranma ½ - 720p Parte 2\[xZ] Ranma ½ - 001.mkv
Format : Matroska
Format version : Version 4
File size : 579 MiB
Duration : 23 min 47 s
Overall bit rate mode : Variable
Overall bit rate : 3 401 kb/s
Movie name : Ranma ½ Blu-Ray - Capítulo 001: "De China llega un extraño" -Release by GfS-
Encoded date : UTC 2016-03-16 05:21:58
Writing application : mkvmerge v8.9.0 ('Father Daughter') 64bit
Writing library : libebml v1.3.3 + libmatroska v1.4.4
Attachments : LaoUI.ttf

Video
ID : 1
Format : AVC
Format/Info : Advanced Video Codec
Format profile : High 10@L4.1
Format settings : CABAC / 4 Ref Frames
Format settings, CABAC : Yes
Format settings, ReFrames : 4 frames
Codec ID : V_MPEG4/ISO/AVC
Duration : 23 min 47 s
Bit rate : 2 500 kb/s
Width : 960 pixels
Height : 720 pixels
Display aspect ratio : 4:3
Frame rate mode : Constant
Frame rate : 23.976 (24000/1001) FPS
Color space : YUV
Chroma subsampling : 4:2:0
Bit depth : 10 bits
Scan type : Progressive
Bits/(Pixel*Frame) : 0.151
Stream size : 425 MiB (74Loco
Title : Ranma ½ 001 [BDRip x264 Hi10p 720p]
Writing library : x264 core 142 r2389 956c8d8
Encoding settings : cabac=1 / ref=4 / deblock=1:0:0 / analyse=0x3:0x133 / me=umh / subme=10 / psy=1 / psy_rd=0.10:0.00 / mixed_ref=1 / me_range=24 / chroma_me=1 / trellis=2 / 8x8dct=1 / cqm=0 / deadzone=21,11 / fast_pskip=1 / chroma_qp_offset=-1 / threads=6 / lookahead_threads=1 / sliced_threads=0 / nr=0 / decimate=1 / interlaced=0 / bluray_compat=0 / constrained_intra=0 / bframes=3 / b_pyramid=2 / b_adapt=2 / b_bias=0 / direct=3 / weightb=1 / open_gop=0 / weightp=2 / keyint=240 / keyint_min=23 / scenecut=40 / intra_refresh=0 / rc_lookahead=40 / rc=2pass / mbtree=1 / bitrate=2500 / ratetol=1.0 / qcomp=0.75 / qpmin=0 / qpmax=81 / qpstep=4 / cplxblur=20.0 / qblur=0.5 / ip_ratio=1.40 / aq=2:0.20
Language : Japanese
Default : Yes
Forced : No
Color range : Limited
Matrix coefficients : BT.709

Audio #1
ID : 2
Format : FLAC
Format/Info : Free Lossless Audio Codec
Codec ID : A_FLAC
Duration : 23 min 47 s
Bit rate mode : Variable
Bit rate : 471 kb/s
Channel(s) : 2 channels
Channel layout : L R
Sampling rate : 48.0 kHz
Frame rate : 11.719 FPS (4096 SPF)
Bit depth : 16 bits
Compression mode : Lossless
Stream size : 80.1 MiB (14Loco
Title : Español Latino
Writing library : libFLAC 1.3.0 (UTC 2013-05-26)
Language : Spanish
Default : Yes
Forced : No

Audio #2
ID : 3
Format : FLAC
Format/Info : Free Lossless Audio Codec
Codec ID : A_FLAC
Duration : 23 min 47 s
Bit rate mode : Variable
Bit rate : 427 kb/s
Channel(s) : 2 channels
Channel layout : L R
Sampling rate : 48.0 kHz
Frame rate : 11.719 FPS (4096 SPF)
Bit depth : 16 bits
Compression mode : Lossless
Stream size : 72.7 MiB (13Loco
Title : Japones
Writing library : libFLAC 1.3.0 (UTC 2013-05-26)
Language : Japanese
Default : No
Forced : No

Text
ID : 4
Format : ASS
Codec ID : S_TEXT/ASS
Codec ID/Info : Advanced Sub Station Alpha
Duration : 8 min 6 s
Bit rate : 1 b/s
Count of elements : 2
Compression mode : Lossless
Stream size : 117 Bytes (0Loco
Title : Textos y escenas censuradas
Language : Spanish
Default : Yes
Forced : Yes

Menu
00:00:00.000 : es:Opening
00:01:31.171 : es:Parte A
00:12:36.808 : es:Parte B
00:21:57.345 : es:Ending
00:23:27.431 : es:Avance

¿Valen la pena los audios?
17 Aug 2019, 21:38
Mensaje: #868

RE: Hablemos de los fansubs

¿alguna opinión de Kashikoi Fansub? , he visto que en su página tienen hartas cosas, aquí en UF nada salvo un hilo reclutando gente Indeciso
17 Aug 2019, 22:01 (Este mensaje fue modificado por última vez en: 17 Aug 2019 22:24 por buhonightblue)
Mensaje: #869

RE: Hablemos de los fansubs

(17 Aug 2019 21:38)Meowth escribió:  ¿alguna opinión de Kashikoi Fansub? , he visto que en su página tienen hartas cosas, aquí en UF nada salvo un hilo reclutando gente Indeciso

Son muy mejorables. En todo caso, algunas cosas suyas incluso han ido a dar a la papelera.



(16 Aug 2019 23:07)fedro escribió:  ¿La versión de TK de Ranma ½ vale la pena?
MediaInfo:
Mostrar
1080p escribió:General
Unique ID : 223337669607968787464649912662410774757 (0xA805454378655575A5A268406D25C8E5)
Complete name : I:\_DESCARGAS\[xZero_] Ranma ½ - 1080p Parte 5\[xZ] Ranma ½ - 001.mkv
Format : Matroska
Format version : Version 4
File size : 1.23 GiB
Duration : 23 min 47 s
Overall bit rate mode : Variable
Overall bit rate : 7 401 kb/s
Movie name : Ranma ½ Blu-Ray - Capítulo 001: "De China llega un extraño" -Release by GfS-
Encoded date : UTC 2016-03-16 05:52:30
Writing application : mkvmerge v8.9.0 ('Father Daughter') 64bit
Writing library : libebml v1.3.3 + libmatroska v1.4.4
Attachments : LaoUI.ttf

Video
ID : 1
Format : AVC
Format/Info : Advanced Video Codec
Format profile : High 10@L4.1
Format settings : CABAC / 4 Ref Frames
Format settings, CABAC : Yes
Format settings, ReFrames : 4 frames
Codec ID : V_MPEG4/ISO/AVC
Duration : 23 min 47 s
Bit rate : 6 500 kb/s
Width : 1 440 pixels
Height : 1 080 pixels
Display aspect ratio : 4:3
Frame rate mode : Constant
Frame rate : 23.976 (24000/1001) FPS
Color space : YUV
Chroma subsampling : 4:2:0
Bit depth : 10 bits
Scan type : Progressive
Bits/(Pixel*Frame) : 0.174
Stream size : 1.08 GiB (88Loco
Title : Ranma ½ 001 [BDRip x264 Hi10p 1080p]
Writing library : x264 core 142 r2409 d6b4e63
Encoding settings : cabac=1 / ref=4 / deblock=1:-3:-1 / analyse=0x3:0x133 / me=umh / subme=10 / psy=1 / psy_rd=0.80:0.00 / mixed_ref=1 / me_range=24 / chroma_me=1 / trellis=2 / 8x8dct=1 / cqm=0 / deadzone=21,11 / fast_pskip=1 / chroma_qp_offset=-2 / threads=6 / lookahead_threads=1 / sliced_threads=0 / nr=0 / decimate=1 / interlaced=0 / bluray_compat=0 / constrained_intra=0 / bframes=3 / b_pyramid=2 / b_adapt=2 / b_bias=0 / direct=3 / weightb=1 / open_gop=0 / weightp=2 / keyint=240 / keyint_min=23 / scenecut=40 / intra_refresh=0 / rc_lookahead=40 / rc=2pass / mbtree=1 / bitrate=6500 / ratetol=1.0 / qcomp=0.65 / qpmin=0 / qpmax=81 / qpstep=4 / cplxblur=20.0 / qblur=0.5 / ip_ratio=1.40 / aq=2:0.50
Language : Japanese
Default : Yes
Forced : No
Color range : Limited
Color primaries : BT.709
Transfer characteristics : BT.709
Matrix coefficients : BT.709

Audio #1
ID : 2
Format : FLAC
Format/Info : Free Lossless Audio Codec
Codec ID : A_FLAC
Duration : 23 min 47 s
Bit rate mode : Variable
Bit rate : 471 kb/s
Channel(s) : 2 channels
Channel layout : L R
Sampling rate : 48.0 kHz
Frame rate : 11.719 FPS (4096 SPF)
Bit depth : 16 bits
Compression mode : Lossless
Stream size : 80.1 MiB (6Loco
Title : Español Latino
Writing library : libFLAC 1.3.0 (UTC 2013-05-26)
Language : Spanish
Default : Yes
Forced : No

Audio #2
ID : 3
Format : FLAC
Format/Info : Free Lossless Audio Codec
Codec ID : A_FLAC
Duration : 23 min 47 s
Bit rate mode : Variable
Bit rate : 427 kb/s
Channel(s) : 2 channels
Channel layout : L R
Sampling rate : 48.0 kHz
Frame rate : 11.719 FPS (4096 SPF)
Bit depth : 16 bits
Compression mode : Lossless
Stream size : 72.7 MiB (6Loco
Title : Japones
Writing library : libFLAC 1.3.0 (UTC 2013-05-26)
Language : Japanese
Default : No
Forced : No

Text
ID : 4
Format : ASS
Codec ID : S_TEXT/ASS
Codec ID/Info : Advanced Sub Station Alpha
Duration : 8 min 6 s
Bit rate : 2 b/s
Count of elements : 2
Compression mode : Lossless
Stream size : 123 Bytes (0Loco
Title : Textos y escenas censuradas
Language : Spanish
Default : Yes
Forced : Yes

Menu
00:00:00.000 : es:Opening
00:01:31.171 : es:Parte A
00:12:36.808 : es:Parte B
00:21:57.345 : es:Ending
00:23:27.431 : es:Avance
  
720p escribió:General
Unique ID : 211989464063319349377790312705406507380 (0x9F7BAF884AFC8BEC8817AA089C9F9974)
Complete name : I:\_DESCARGAS\[xZero_] Ranma ½ - 720p Parte 2\[xZ] Ranma ½ - 001.mkv
Format : Matroska
Format version : Version 4
File size : 579 MiB
Duration : 23 min 47 s
Overall bit rate mode : Variable
Overall bit rate : 3 401 kb/s
Movie name : Ranma ½ Blu-Ray - Capítulo 001: "De China llega un extraño" -Release by GfS-
Encoded date : UTC 2016-03-16 05:21:58
Writing application : mkvmerge v8.9.0 ('Father Daughter') 64bit
Writing library : libebml v1.3.3 + libmatroska v1.4.4
Attachments : LaoUI.ttf

Video
ID : 1
Format : AVC
Format/Info : Advanced Video Codec
Format profile : High 10@L4.1
Format settings : CABAC / 4 Ref Frames
Format settings, CABAC : Yes
Format settings, ReFrames : 4 frames
Codec ID : V_MPEG4/ISO/AVC
Duration : 23 min 47 s
Bit rate : 2 500 kb/s
Width : 960 pixels
Height : 720 pixels
Display aspect ratio : 4:3
Frame rate mode : Constant
Frame rate : 23.976 (24000/1001) FPS
Color space : YUV
Chroma subsampling : 4:2:0
Bit depth : 10 bits
Scan type : Progressive
Bits/(Pixel*Frame) : 0.151
Stream size : 425 MiB (74Loco
Title : Ranma ½ 001 [BDRip x264 Hi10p 720p]
Writing library : x264 core 142 r2389 956c8d8
Encoding settings : cabac=1 / ref=4 / deblock=1:0:0 / analyse=0x3:0x133 / me=umh / subme=10 / psy=1 / psy_rd=0.10:0.00 / mixed_ref=1 / me_range=24 / chroma_me=1 / trellis=2 / 8x8dct=1 / cqm=0 / deadzone=21,11 / fast_pskip=1 / chroma_qp_offset=-1 / threads=6 / lookahead_threads=1 / sliced_threads=0 / nr=0 / decimate=1 / interlaced=0 / bluray_compat=0 / constrained_intra=0 / bframes=3 / b_pyramid=2 / b_adapt=2 / b_bias=0 / direct=3 / weightb=1 / open_gop=0 / weightp=2 / keyint=240 / keyint_min=23 / scenecut=40 / intra_refresh=0 / rc_lookahead=40 / rc=2pass / mbtree=1 / bitrate=2500 / ratetol=1.0 / qcomp=0.75 / qpmin=0 / qpmax=81 / qpstep=4 / cplxblur=20.0 / qblur=0.5 / ip_ratio=1.40 / aq=2:0.20
Language : Japanese
Default : Yes
Forced : No
Color range : Limited
Matrix coefficients : BT.709

Audio #1
ID : 2
Format : FLAC
Format/Info : Free Lossless Audio Codec
Codec ID : A_FLAC
Duration : 23 min 47 s
Bit rate mode : Variable
Bit rate : 471 kb/s
Channel(s) : 2 channels
Channel layout : L R
Sampling rate : 48.0 kHz
Frame rate : 11.719 FPS (4096 SPF)
Bit depth : 16 bits
Compression mode : Lossless
Stream size : 80.1 MiB (14Loco
Title : Español Latino
Writing library : libFLAC 1.3.0 (UTC 2013-05-26)
Language : Spanish
Default : Yes
Forced : No

Audio #2
ID : 3
Format : FLAC
Format/Info : Free Lossless Audio Codec
Codec ID : A_FLAC
Duration : 23 min 47 s
Bit rate mode : Variable
Bit rate : 427 kb/s
Channel(s) : 2 channels
Channel layout : L R
Sampling rate : 48.0 kHz
Frame rate : 11.719 FPS (4096 SPF)
Bit depth : 16 bits
Compression mode : Lossless
Stream size : 72.7 MiB (13Loco
Title : Japones
Writing library : libFLAC 1.3.0 (UTC 2013-05-26)
Language : Japanese
Default : No
Forced : No

Text
ID : 4
Format : ASS
Codec ID : S_TEXT/ASS
Codec ID/Info : Advanced Sub Station Alpha
Duration : 8 min 6 s
Bit rate : 1 b/s
Count of elements : 2
Compression mode : Lossless
Stream size : 117 Bytes (0Loco
Title : Textos y escenas censuradas
Language : Spanish
Default : Yes
Forced : Yes

Menu
00:00:00.000 : es:Opening
00:01:31.171 : es:Parte A
00:12:36.808 : es:Parte B
00:21:57.345 : es:Ending
00:23:27.431 : es:Avance

¿Valen la pena los audios?

¿Hay audios en mejor calidad que esos? Me preocupa un poco que estén en FLAC, aunque quiero creer que lo han hecho así porque los han editado con algún programa y han preferido el FLAC para que no haya más pérdida.
17 Aug 2019, 22:43 (Este mensaje fue modificado por última vez en: 17 Aug 2019 22:44 por JanoBitz)
Mensaje: #870

RE: Hablemos de los fansubs

(16 Aug 2019 23:07)fedro escribió:  ¿La versión de TK de Ranma ½ vale la pena?
MediaInfo:
Mostrar
1080p escribió:General
Unique ID : 223337669607968787464649912662410774757 (0xA805454378655575A5A268406D25C8E5)
Complete name : I:\_DESCARGAS\[xZero_] Ranma ½ - 1080p Parte 5\[xZ] Ranma ½ - 001.mkv
Format : Matroska
Format version : Version 4
File size : 1.23 GiB
Duration : 23 min 47 s
Overall bit rate mode : Variable
Overall bit rate : 7 401 kb/s
Movie name : Ranma ½ Blu-Ray - Capítulo 001: "De China llega un extraño" -Release by GfS-
Encoded date : UTC 2016-03-16 05:52:30
Writing application : mkvmerge v8.9.0 ('Father Daughter') 64bit
Writing library : libebml v1.3.3 + libmatroska v1.4.4
Attachments : LaoUI.ttf

Video
ID : 1
Format : AVC
Format/Info : Advanced Video Codec
Format profile : High 10@L4.1
Format settings : CABAC / 4 Ref Frames
Format settings, CABAC : Yes
Format settings, ReFrames : 4 frames
Codec ID : V_MPEG4/ISO/AVC
Duration : 23 min 47 s
Bit rate : 6 500 kb/s
Width : 1 440 pixels
Height : 1 080 pixels
Display aspect ratio : 4:3
Frame rate mode : Constant
Frame rate : 23.976 (24000/1001) FPS
Color space : YUV
Chroma subsampling : 4:2:0
Bit depth : 10 bits
Scan type : Progressive
Bits/(Pixel*Frame) : 0.174
Stream size : 1.08 GiB (88Loco
Title : Ranma ½ 001 [BDRip x264 Hi10p 1080p]
Writing library : x264 core 142 r2409 d6b4e63
Encoding settings : cabac=1 / ref=4 / deblock=1:-3:-1 / analyse=0x3:0x133 / me=umh / subme=10 / psy=1 / psy_rd=0.80:0.00 / mixed_ref=1 / me_range=24 / chroma_me=1 / trellis=2 / 8x8dct=1 / cqm=0 / deadzone=21,11 / fast_pskip=1 / chroma_qp_offset=-2 / threads=6 / lookahead_threads=1 / sliced_threads=0 / nr=0 / decimate=1 / interlaced=0 / bluray_compat=0 / constrained_intra=0 / bframes=3 / b_pyramid=2 / b_adapt=2 / b_bias=0 / direct=3 / weightb=1 / open_gop=0 / weightp=2 / keyint=240 / keyint_min=23 / scenecut=40 / intra_refresh=0 / rc_lookahead=40 / rc=2pass / mbtree=1 / bitrate=6500 / ratetol=1.0 / qcomp=0.65 / qpmin=0 / qpmax=81 / qpstep=4 / cplxblur=20.0 / qblur=0.5 / ip_ratio=1.40 / aq=2:0.50
Language : Japanese
Default : Yes
Forced : No
Color range : Limited
Color primaries : BT.709
Transfer characteristics : BT.709
Matrix coefficients : BT.709

Audio #1
ID : 2
Format : FLAC
Format/Info : Free Lossless Audio Codec
Codec ID : A_FLAC
Duration : 23 min 47 s
Bit rate mode : Variable
Bit rate : 471 kb/s
Channel(s) : 2 channels
Channel layout : L R
Sampling rate : 48.0 kHz
Frame rate : 11.719 FPS (4096 SPF)
Bit depth : 16 bits
Compression mode : Lossless
Stream size : 80.1 MiB (6Loco
Title : Español Latino
Writing library : libFLAC 1.3.0 (UTC 2013-05-26)
Language : Spanish
Default : Yes
Forced : No

Audio #2
ID : 3
Format : FLAC
Format/Info : Free Lossless Audio Codec
Codec ID : A_FLAC
Duration : 23 min 47 s
Bit rate mode : Variable
Bit rate : 427 kb/s
Channel(s) : 2 channels
Channel layout : L R
Sampling rate : 48.0 kHz
Frame rate : 11.719 FPS (4096 SPF)
Bit depth : 16 bits
Compression mode : Lossless
Stream size : 72.7 MiB (6Loco
Title : Japones
Writing library : libFLAC 1.3.0 (UTC 2013-05-26)
Language : Japanese
Default : No
Forced : No

Text
ID : 4
Format : ASS
Codec ID : S_TEXT/ASS
Codec ID/Info : Advanced Sub Station Alpha
Duration : 8 min 6 s
Bit rate : 2 b/s
Count of elements : 2
Compression mode : Lossless
Stream size : 123 Bytes (0Loco
Title : Textos y escenas censuradas
Language : Spanish
Default : Yes
Forced : Yes

Menu
00:00:00.000 : es:Opening
00:01:31.171 : es:Parte A
00:12:36.808 : es:Parte B
00:21:57.345 : es:Ending
00:23:27.431 : es:Avance
  
720p escribió:General
Unique ID : 211989464063319349377790312705406507380 (0x9F7BAF884AFC8BEC8817AA089C9F9974)
Complete name : I:\_DESCARGAS\[xZero_] Ranma ½ - 720p Parte 2\[xZ] Ranma ½ - 001.mkv
Format : Matroska
Format version : Version 4
File size : 579 MiB
Duration : 23 min 47 s
Overall bit rate mode : Variable
Overall bit rate : 3 401 kb/s
Movie name : Ranma ½ Blu-Ray - Capítulo 001: "De China llega un extraño" -Release by GfS-
Encoded date : UTC 2016-03-16 05:21:58
Writing application : mkvmerge v8.9.0 ('Father Daughter') 64bit
Writing library : libebml v1.3.3 + libmatroska v1.4.4
Attachments : LaoUI.ttf

Video
ID : 1
Format : AVC
Format/Info : Advanced Video Codec
Format profile : High 10@L4.1
Format settings : CABAC / 4 Ref Frames
Format settings, CABAC : Yes
Format settings, ReFrames : 4 frames
Codec ID : V_MPEG4/ISO/AVC
Duration : 23 min 47 s
Bit rate : 2 500 kb/s
Width : 960 pixels
Height : 720 pixels
Display aspect ratio : 4:3
Frame rate mode : Constant
Frame rate : 23.976 (24000/1001) FPS
Color space : YUV
Chroma subsampling : 4:2:0
Bit depth : 10 bits
Scan type : Progressive
Bits/(Pixel*Frame) : 0.151
Stream size : 425 MiB (74Loco
Title : Ranma ½ 001 [BDRip x264 Hi10p 720p]
Writing library : x264 core 142 r2389 956c8d8
Encoding settings : cabac=1 / ref=4 / deblock=1:0:0 / analyse=0x3:0x133 / me=umh / subme=10 / psy=1 / psy_rd=0.10:0.00 / mixed_ref=1 / me_range=24 / chroma_me=1 / trellis=2 / 8x8dct=1 / cqm=0 / deadzone=21,11 / fast_pskip=1 / chroma_qp_offset=-1 / threads=6 / lookahead_threads=1 / sliced_threads=0 / nr=0 / decimate=1 / interlaced=0 / bluray_compat=0 / constrained_intra=0 / bframes=3 / b_pyramid=2 / b_adapt=2 / b_bias=0 / direct=3 / weightb=1 / open_gop=0 / weightp=2 / keyint=240 / keyint_min=23 / scenecut=40 / intra_refresh=0 / rc_lookahead=40 / rc=2pass / mbtree=1 / bitrate=2500 / ratetol=1.0 / qcomp=0.75 / qpmin=0 / qpmax=81 / qpstep=4 / cplxblur=20.0 / qblur=0.5 / ip_ratio=1.40 / aq=2:0.20
Language : Japanese
Default : Yes
Forced : No
Color range : Limited
Matrix coefficients : BT.709

Audio #1
ID : 2
Format : FLAC
Format/Info : Free Lossless Audio Codec
Codec ID : A_FLAC
Duration : 23 min 47 s
Bit rate mode : Variable
Bit rate : 471 kb/s
Channel(s) : 2 channels
Channel layout : L R
Sampling rate : 48.0 kHz
Frame rate : 11.719 FPS (4096 SPF)
Bit depth : 16 bits
Compression mode : Lossless
Stream size : 80.1 MiB (14Loco
Title : Español Latino
Writing library : libFLAC 1.3.0 (UTC 2013-05-26)
Language : Spanish
Default : Yes
Forced : No

Audio #2
ID : 3
Format : FLAC
Format/Info : Free Lossless Audio Codec
Codec ID : A_FLAC
Duration : 23 min 47 s
Bit rate mode : Variable
Bit rate : 427 kb/s
Channel(s) : 2 channels
Channel layout : L R
Sampling rate : 48.0 kHz
Frame rate : 11.719 FPS (4096 SPF)
Bit depth : 16 bits
Compression mode : Lossless
Stream size : 72.7 MiB (13Loco
Title : Japones
Writing library : libFLAC 1.3.0 (UTC 2013-05-26)
Language : Japanese
Default : No
Forced : No

Text
ID : 4
Format : ASS
Codec ID : S_TEXT/ASS
Codec ID/Info : Advanced Sub Station Alpha
Duration : 8 min 6 s
Bit rate : 1 b/s
Count of elements : 2
Compression mode : Lossless
Stream size : 117 Bytes (0Loco
Title : Textos y escenas censuradas
Language : Spanish
Default : Yes
Forced : Yes

Menu
00:00:00.000 : es:Opening
00:01:31.171 : es:Parte A
00:12:36.808 : es:Parte B
00:21:57.345 : es:Ending
00:23:27.431 : es:Avance

¿Valen la pena los audios?

1080p
>Encoded date : UTC 2016-03-16 05:52:30
>bitrate=6500

720p
>Encoded date : UTC 2016-03-16 05:21:58
>bitrate=2500

Y bueno. Audio FLAC en latino de esto no hay.
Será algo como la versión de Yamada y las siete brujas de Danser que el latino está en FLAC cuando solo hay AAC de CR.

Puro bloat.


Usuario(s) navegando en este tema: 1 invitado(s)